<?xml version="1.0" standalone="no"?>
<!DOCTYPE svg PUBLIC "-//W3C//DTD SVG 1.1//EN" "http://www.w3.org/Graphics/SVG/1.1/DTD/svg11.dtd" >
<svg>
<metadata>
Created by FontForge 20090622 at Mon Jul 11 10:40:40 2016
 By deploy user
Copyright 1989,1990 URW Unternehmensberatunge and The Compa
</metadata>
<defs>
<font id="CenturySchoolbookBold-Italic" horiz-adv-x="1184" >
  <font-face 
    font-family="Century-Schoolbook"
    font-weight="700"
    font-style="italic"
    font-stretch="normal"
    units-per-em="2048"
    panose-1="2 2 -30 0 0 0 0 0 0 0"
    ascent="1638"
    descent="-410"
    x-height="1004"
    cap-height="1479"
    bbox="-381 -475 2368 2093"
    underline-thickness="85"
    underline-position="41"
    unicode-range="U+0020-U+2122"
  />
<missing-glyph horiz-adv-x="1512" 
d="M94 0v1512h1324v-1512h-1324zM1324 94v1324h-1136v-1324h1136z" />
    <glyph glyph-name=".notdef" horiz-adv-x="1512" 
d="M94 0v1512h1324v-1512h-1324zM1324 94v1324h-1136v-1324h1136z" />
    <glyph glyph-name=".null" horiz-adv-x="0" 
 />
    <glyph glyph-name="nonmarkingreturn" horiz-adv-x="1090" 
 />
    <glyph glyph-name="space" unicode=" " horiz-adv-x="1090" 
 />
    <glyph glyph-name="exclam" unicode="!" horiz-adv-x="697" 
d="M365 451l-99 28q31 137 48.5 258t17.5 238q0 17 -1 59t-1 68l-2 111q0 141 52.5 218t148.5 77q73 0 124.5 -52t51.5 -125q0 -66 -22.5 -123.5t-108.5 -220.5q-59 -107 -110.5 -239t-98.5 -297zM242 324q72 0 124 -51t52 -125t-51 -127.5t-125 -53.5q-75 0 -125.5 53
t-50.5 128q0 74 51 125t125 51z" />
    <glyph glyph-name="quotedbl" unicode="&#x22;" horiz-adv-x="836" 
d="M221 893l45 365q15 125 63.5 191.5t121.5 66.5q39 0 64.5 -23t25.5 -63q0 -43 -41 -131l-164 -385q-29 -74 -74 -74q-41 0 -41 53zM627 893l45 365q15 125 63.5 191.5t120.5 66.5q90 0 90 -86q0 -36 -36 -131l-164 -385q-35 -74 -78 -74q-41 0 -41 53z" />
    <glyph glyph-name="numbersign" unicode="#" horiz-adv-x="1254" 
d="M1151 664v-197h-225l-66 -467h-200l69 467h-188l-66 -467h-196l69 467h-221v197h250l29 184h-217v193h245l66 438h188l-61 -438h188l62 438h200l-65 -438h197v-193h-226l-24 -184h192zM787 848h-189l-24 -184h184z" />
    <glyph glyph-name="dollar" unicode="$" 
d="M733 885q138 -87 207.5 -138.5t126 -133.5t56.5 -187q0 -120 -71 -220q-35 -48 -84 -86t-113 -66q-126 -54 -285 -54h-58l-41 -168h-102l41 168q-51 17 -78 21q-136 33 -232 131t-96 209q0 73 47.5 122.5t120.5 49.5q76 0 128.5 -50.5t52.5 -121.5q0 -41 -32.5 -96.5
t-62.5 -55.5q-6 -6 -8 -12q0 -47 184 -98l136 536q-114 78 -180 132.5t-113 132.5t-47 177q0 118 67.5 209.5t193.5 142.5q64 27 136.5 40.5t155.5 13.5l41 164h102l-41 -164q89 -22 166 -62t129.5 -105t52.5 -148t-41 -130t-115 -47q-60 0 -105.5 44t-45.5 104q0 68 49 111
q31 20 33 36q0 21 -43 52.5t-105 50.5zM660 582l-123 -496q11 4 37 4q83 0 151.5 32.5t106 88.5t37.5 125q0 88 -56 143.5t-153 102.5zM647 942l115 455q-72 0 -125 -14.5t-96 -42.5q-78 -51 -78 -140q0 -78 47 -136q23 -27 59 -59t78 -63z" />
    <glyph glyph-name="percent" unicode="%" horiz-adv-x="1831" 
d="M570 1475q148 0 221.5 -100t73.5 -252q0 -110 -33 -209q-17 -50 -39 -93t-53 -82q-58 -75 -135.5 -118t-161.5 -43q-128 0 -213.5 98.5t-85.5 249.5q0 140 58 264t159 203q49 39 103 60.5t106 21.5zM586 1405q-70 0 -124.5 -117.5t-84 -273.5t-29.5 -244q0 -55 23 -92
q24 -35 63 -35q69 0 124 130.5t86.5 294.5t31.5 227q0 54 -23.5 82t-66.5 28zM492 0l860 1458h111l-865 -1458h-106zM1508 893h4q88 0 153 -41.5t99 -120t34 -190.5q0 -60 -7 -108.5t-25 -102.5q-31 -98 -89.5 -174t-135.5 -120t-160 -44q-84 0 -154 45t-110 124.5
t-40 170.5q0 143 58.5 271.5t158.5 207.5q50 40 104 61t110 21zM1520 824q-71 0 -124 -118.5t-83.5 -276t-30.5 -244.5q0 -55 25 -89t65 -34q43 0 72 38.5t68 145.5q98 273 98 467q0 52 -23.5 81.5t-66.5 29.5z" />
    <glyph glyph-name="ampersand" unicode="&#x26;" horiz-adv-x="1831" 
d="M1786 295q-27 -46 -60 -88.5t-71 -79.5q-74 -73 -156.5 -114.5t-158.5 -41.5q-146 0 -303 115q-56 -30 -113 -53.5t-99 -36.5q-94 -25 -219 -25q-165 0 -295 54t-200 151t-70 222q0 121 71.5 210t173.5 142.5t243 105.5l-19 68l-23 91q-8 38 -8 71q0 130 55.5 225.5
t159.5 146t248 50.5q129 0 229 -39.5t157 -110t57 -158.5q0 -104 -79.5 -171.5t-171.5 -100.5t-241 -72q103 -272 287 -508q97 97 140.5 164.5t43.5 122.5q0 74 -56 94t-173 37l24 90h664l-21 -90q-83 -15 -123.5 -32.5t-74.5 -55t-105 -137.5q-139 -192 -229 -279
q92 -98 172 -98q64 0 134 50t120 134zM934 176q-114 123 -203.5 271t-152.5 319q-76 -35 -120.5 -70t-64.5 -76.5t-20 -90.5q0 -63 36 -139t95 -144q54 -63 116.5 -91t149.5 -28q54 0 85.5 9.5t78.5 39.5zM856 967q123 27 203 96t80 187q0 79 -43.5 123t-120.5 44
q-89 0 -138.5 -50t-49.5 -142q0 -55 13 -104q6 -22 21 -63t35 -91z" />
    <glyph glyph-name="quotesingle" unicode="'" horiz-adv-x="606" 
d="M328 893l45 365q38 258 184 258q90 0 90 -86q0 -36 -36 -131l-164 -385q-35 -74 -78 -74q-41 0 -41 53z" />
    <glyph glyph-name="parenleft" unicode="(" horiz-adv-x="860" 
d="M574 -324q-114 159 -179 271q-68 116 -110.5 254t-42.5 291q0 155 42 295.5t123 267.5t202.5 241t279.5 207l74 -40q-130 -99 -223 -232q-48 -68 -84 -136t-65 -148q-55 -148 -82 -315q-13 -82 -19 -163.5t-6 -169.5q0 -358 172 -590z" />
    <glyph glyph-name="parenright" unicode=")" horiz-adv-x="860" 
d="M299 1503q113 -157 180 -269.5t109.5 -250t42.5 -291.5q0 -85 -11 -160t-36 -152q-47 -149 -135 -277q-44 -65 -94.5 -123.5t-109.5 -111.5q-118 -106 -262 -192l-73 41q133 97 225 229.5t147.5 285.5t81 315t25.5 338q0 256 -82 438q-10 23 -90 152z" />
    <glyph glyph-name="asterisk" unicode="*" horiz-adv-x="1045" 
d="M742 1114q36 -31 104.5 -61t100.5 -54.5t32 -76.5q0 -42 -25.5 -68t-64.5 -26q-52 0 -70 25t-53 106t-78 123q-12 -50 -12 -74q0 -20 8 -68q4 -24 6 -39t2 -28q0 -127 -94 -127q-36 0 -63 27t-27 67q0 33 13 61.5t39 66.5l42 66q15 29 21 60q-43 -9 -73 -29
q-16 -11 -30.5 -22.5t-31.5 -27.5q-34 -31 -56.5 -45.5t-50.5 -14.5q-40 0 -69 30t-29 68q0 37 31.5 67.5t70.5 30.5q21 0 31.5 -1.5t33.5 -6t38 -6.5t28 -2q32 0 74 16q-16 14 -44.5 30.5t-64.5 31.5q-70 29 -101.5 52.5t-31.5 78.5q0 36 27 63t68 27q47 0 66 -19
q9 -8 18.5 -25.5t20.5 -48.5t18 -47.5t17 -34.5q15 -30 60 -71q13 31 13 66q0 24 -9 68q-4 24 -6 38.5t-2 28.5q0 54 24.5 86.5t65.5 32.5q40 0 67.5 -26.5t27.5 -64.5q0 -27 -12 -53q-6 -13 -14 -28t-23 -37l-40 -65q-13 -24 -22 -66q23 7 42 15t29 14q23 15 68 57
q48 53 99 53q38 0 68 -29t30 -69q0 -37 -32 -69q-32 -30 -71 -30q-17 0 -62 8q-42 9 -65 9q-25 0 -77 -13z" />
    <glyph glyph-name="plus" unicode="+" horiz-adv-x="1254" 
d="M541 877v418h254v-418h385v-254h-385v-438h-254v438h-381v254h381z" />
    <glyph glyph-name="comma" unicode="," horiz-adv-x="606" 
d="M-53 -307l-29 73q78 35 154 91t76 114q0 10 -25 16q-106 54 -106 169q0 76 49 128t123 52q77 0 130.5 -57.5t53.5 -143.5q0 -81 -44 -162.5t-122.5 -145.5t-177.5 -98l-46 -18z" />
    <glyph glyph-name="hyphen" unicode="-" horiz-adv-x="697" 
d="M639 459h-610l61 242h607z" />
    <glyph glyph-name="period" unicode="." horiz-adv-x="606" 
d="M197 324q74 0 127 -51t53 -125q0 -75 -53 -128t-127 -53q-71 0 -123.5 53t-52.5 128q0 73 52 124q27 26 57 39t67 13z" />
    <glyph glyph-name="slash" unicode="/" horiz-adv-x="582" 
d="M905 1479l-1036 -1774h-250l1037 1774h249z" />
    <glyph glyph-name="zero" unicode="0" 
d="M746 1508q162 0 265 -81t150.5 -216.5t47.5 -292.5q0 -190 -54 -361t-150 -303.5t-221.5 -207.5t-263.5 -75q-134 0 -243 77t-170.5 210t-61.5 295q0 119 29 247q16 65 36 123t50 118q55 113 135 213q70 90 136.5 143t141.5 79q44 15 85 23.5t88 8.5zM770 1409
q-55 0 -106.5 -37.5t-85.5 -101.5q-59 -119 -113.5 -299t-89.5 -368t-35 -316q0 -95 42.5 -154t113.5 -59q77 0 133.5 72t120.5 256q76 212 128 426.5t52 392.5q0 82 -43.5 135t-116.5 53z" />
    <glyph glyph-name="one" unicode="1" 
d="M1004 1479l-299 -1200q-11 -33 -18 -64t-7 -51q0 -70 156 -70h57l-24 -94h-762l24 94q97 0 140.5 11.5t64.5 49t49 136.5l201 807q12 48 12 78q0 43 -39.5 58.5t-148.5 15.5h-29l25 94q42 0 61 -4q71 0 132 7t112 22q103 29 194 110h99z" />
    <glyph glyph-name="two" unicode="2" 
d="M1012 0h-1098l33 131l62.5 66.5t54.5 53.5q46 43 121 97l204 156l112.5 84l82.5 64q67 52 142.5 131.5t121 171.5t45.5 196q0 72 -28.5 126t-81.5 83t-123 29q-142 0 -217 -94q-25 -25 -25 -37q0 -6 16 -13q38 0 74 -25q33 -22 53.5 -59.5t20.5 -78.5q0 -71 -50.5 -124
t-121.5 -53q-52 0 -97.5 28t-72.5 76.5t-27 104.5q0 79 42.5 150.5t117 126t174.5 86.5q49 15 100.5 23t106.5 8q137 0 252.5 -52.5t181.5 -143t66 -198.5q0 -71 -27.5 -142.5t-76 -133t-124.5 -122.5q-33 -26 -79 -56q-42 -27 -91 -54l-225 -118q-56 -29 -168 -101l-96 -59
t-72 -41h467q94 0 153 31.5t94 87.5q17 27 37.5 66.5t39.5 84.5h98z" />
    <glyph glyph-name="three" unicode="3" 
d="M783 787q168 -36 245.5 -114.5t77.5 -209.5q0 -134 -77.5 -247t-213 -179t-299.5 -66q-134 0 -250 50.5t-184.5 135.5t-68.5 183q0 80 53.5 136.5t130.5 56.5q70 0 119 -49t49 -119q0 -57 -30 -93q-28 -36 -67 -58q-18 -10 -33 -21q-2 -1 -5 -4q0 -8 11 -25
q3 -5 7.5 -10.5t17.5 -18.5q61 -61 164 -61q168 0 258 154t90 333q0 76 -39 120t-104 44q-20 0 -29 -1t-44 -8t-54 -7q-86 0 -86 65q0 28 17 45t45 17q17 0 53 -11q38 -10 53 -10q79 0 143.5 44.5t102 127.5t37.5 185q0 110 -54.5 173.5t-150.5 63.5q-46 0 -121.5 -30.5
t-75.5 -71.5q0 -11 17 -17l3 -2l5 -2q90 -48 90 -135q0 -67 -46.5 -115.5t-113.5 -48.5q-44 0 -80 24t-58 67.5t-22 97.5q0 94 61 169.5t170.5 119t240.5 43.5q129 0 232.5 -44t158.5 -122.5t55 -177.5q0 -168 -168 -287q-59 -40 -103 -58q-39 -15 -130 -32z" />
    <glyph glyph-name="four" unicode="4" 
d="M516 369h-586l37 143l1004 946h139l-241 -974h258l-29 -115h-258l-18 -64l-17 -76q-6 -33 -6 -61q0 -32 18 -49q19 -14 63.5 -19.5t115.5 -5.5l-25 -94h-782l24 94q93 0 144 13t78 42.5t42 74.5t39 145zM545 484l147 589l-630 -589h483z" />
    <glyph glyph-name="five" unicode="5" 
d="M1229 1405q-96 -145 -234.5 -222t-302.5 -77q-182 0 -278 66l-86 -336q82 53 155.5 75.5t163.5 22.5q133 0 242 -57.5t171.5 -159t62.5 -225.5q0 -144 -82.5 -263t-224 -188.5t-316.5 -69.5q-223 0 -356 119q-59 53 -91 117.5t-32 124.5q0 87 50 137.5t130 50.5
q74 0 127 -50.5t53 -121.5q0 -65 -34 -99.5t-77 -50.5q-23 -8 -38 -15l-6 -3q0 -14 45 -53q73 -53 172 -53q90 0 157 48.5t106 124.5q19 38 34 79.5t24 86t14 86.5t5 83q0 104 -60 168.5t-158 64.5q-106 0 -258 -69q-29 -111 -98 -111q-25 0 -43 18t-18 44q0 25 13 42
q8 11 20.5 23.5t35.5 32.5l168 684q41 -21 92.5 -38.5t111.5 -32.5q119 -27 214 -27q78 0 131 7.5t106.5 27.5t139.5 63z" />
    <glyph glyph-name="six" unicode="6" 
d="M418 783q157 155 352 155q84 0 154.5 -27t120.5 -78t78 -122.5t28 -157.5q0 -157 -77.5 -290.5t-211.5 -212.5t-288 -79q-107 0 -197 40.5t-159 119.5q-65 75 -100.5 181.5t-35.5 228.5q0 192 60 368t168.5 312t248.5 211.5t293 75.5q101 0 183.5 -36.5t130 -100.5
t47.5 -142q0 -83 -45.5 -135.5t-118.5 -52.5q-71 0 -115.5 50.5t-44.5 129.5q0 42 20.5 80t49.5 51q20 5 20 12q0 6 -16 13q-30 16 -61 24t-66 8q-130 0 -213.5 -101.5t-123 -224t-81.5 -300.5zM676 811q-82 0 -151 -65t-108 -181q-20 -58 -30 -119.5t-10 -133.5
q0 -112 44.5 -175t123.5 -63q92 0 158 91.5t99 215.5q16 61 25 115.5t9 97.5q0 101 -42.5 159t-117.5 58z" />
    <glyph glyph-name="seven" unicode="7" 
d="M1348 1356q-101 -123 -186.5 -240t-169 -257t-138 -275.5t-71.5 -277.5t-64 -238.5t-174 -96.5q-81 0 -141 59t-60 142q0 67 60.5 171t147.5 213q94 118 170 202l163 184l131 156l53 61q-42 0 -102 -4t-78 -4h-119q-76 0 -135 -4t-102 -13q-84 -16 -144 -61
q-42 -29 -68 -66q-13 -17 -32.5 -48.5t-42.5 -73.5h-94l221 594q85 -11 254 -25q59 0 119 -4t131 -8q68 0 161 3.5t105 3.5q47 0 109 9l125 21z" />
    <glyph glyph-name="eight" unicode="8" 
d="M901 791q32 -23 61.5 -49t56.5 -55q48 -54 76 -123t28 -150q0 -154 -76 -253t-203 -144.5t-283 -45.5q-168 0 -301 51t-207 141.5t-74 205.5q0 114 73 192t173 118.5t230 70.5q-103 67 -154 148t-51 196q0 89 36.5 166t102 132t159.5 85q46 15 96 23t106 8
q140 0 248.5 -42t167.5 -118.5t59 -175.5q0 -93 -46 -165t-115 -122t-163 -94zM807 869q109 80 157 154.5t48 160.5q0 99 -80.5 162t-206.5 63q-68 0 -120.5 -24t-80.5 -68.5t-28 -103.5q0 -65 16.5 -103t66.5 -80.5t159 -115.5q23 -12 69 -45zM545 668q-102 -34 -167 -66.5
t-108.5 -91t-43.5 -149.5q0 -135 88.5 -211t246.5 -76q90 0 160.5 28.5t109 79.5t38.5 117q0 67 -51.5 131.5t-126.5 122.5z" />
    <glyph glyph-name="nine" unicode="9" 
d="M873 692q-145 -151 -340 -151q-111 0 -198 49.5t-135 140t-48 207.5q0 150 75 281t204 210t278 79q145 0 259.5 -72.5t179.5 -204t65 -293.5q0 -185 -59 -360.5t-162.5 -311t-237.5 -215.5t-275 -80q-101 0 -184.5 37t-133.5 99.5t-50 138.5t46.5 126t113.5 50
q47 0 86.5 -23t62.5 -62.5t23 -86.5q0 -46 -21 -77.5t-47 -50.5l-27 -19q0 -11 53 -20t74 -9q192 0 273 176q39 86 70.5 197t54.5 245zM746 1417q-75 0 -139 -71t-102 -192t-38 -257q0 -106 40.5 -167.5t115.5 -61.5q83 0 150 66t106 180t39 254q0 112 -47.5 180.5
t-124.5 68.5z" />
    <glyph glyph-name="colon" unicode=":" horiz-adv-x="606" 
d="M340 1008q46 0 87.5 -23.5t65 -64.5t23.5 -88q0 -73 -53 -124.5t-127 -51.5q-70 0 -123 51t-53 125q0 47 24 87.5t66 64.5t90 24zM201 324q72 0 124 -51t52 -125t-51 -127.5t-125 -53.5q-75 0 -125.5 53t-50.5 128q0 74 51 125t125 51z" />
    <glyph glyph-name="semicolon" unicode=";" horiz-adv-x="606" 
d="M-53 -307l-29 73q226 93 226 197q0 9 -21 20q-49 22 -77.5 68t-28.5 101q0 73 48.5 124.5t119.5 51.5q79 0 131.5 -57t52.5 -140q0 -148 -111.5 -263t-310.5 -175zM340 1008q46 0 87.5 -23.5t65 -64.5t23.5 -88q0 -73 -53 -124.5t-127 -51.5q-70 0 -123 51t-53 125
q0 47 24 87.5t66 64.5t90 24z" />
    <glyph glyph-name="less" unicode="&#x3c;" horiz-adv-x="1254" 
d="M1184 377v-242l-1028 496v213l1028 504v-246l-729 -369z" />
    <glyph glyph-name="equal" unicode="=" horiz-adv-x="1254" 
d="M1176 1073v-249h-1016v249h1016zM1176 643v-250h-1016v250h1016z" />
    <glyph glyph-name="greater" unicode="&#x3e;" horiz-adv-x="1254" 
d="M156 377l725 356l-725 369v246l1020 -504v-213l-1020 -496v242z" />
    <glyph glyph-name="question" unicode="?" horiz-adv-x="1000" 
d="M439 324q46 0 86.5 -23t65 -65t24.5 -88q0 -73 -53 -127t-128 -54q-71 0 -123.5 54t-52.5 127q0 48 24.5 88t66.5 64t90 24zM721 533q-93 -111 -246 -111q-114 0 -188 63.5t-74 161.5q0 47 20 95t58 88.5t94 74.5q32 19 127.5 66.5t171.5 91t130.5 92t54.5 90.5
q0 72 -69 118t-177 46q-174 0 -257.5 -86t-119.5 -262l-94 21q12 92 25.5 136t39.5 89q126 201 439 201q129 0 231.5 -41t158.5 -116.5t56 -170.5q0 -61 -27.5 -121t-78.5 -111t-115 -83l-144 -62q-136 -57 -221.5 -111.5t-85.5 -105.5q0 -24 24.5 -45t57.5 -21q30 0 61 14
q15 7 38 21t53 35z" />
    <glyph glyph-name="at" unicode="@" horiz-adv-x="1553" 
d="M1364 389h164q-55 -102 -98.5 -153t-118.5 -109q-107 -78 -216.5 -117t-225.5 -39q-219 0 -399 99.5t-282 274t-102 388.5q0 213 101 391.5t277 281t388 102.5q139 0 268 -47q62 -23 117 -55.5t104 -75.5q95 -84 147 -195t52 -238q0 -192 -90 -327q-35 -59 -100.5 -120.5
t-146 -102t-146.5 -40.5q-69 0 -106.5 42.5t-53.5 138.5q-61 -82 -117 -125t-137 -43q-116 0 -197 88.5t-81 214.5q0 94 37.5 182t101 155t146.5 106.5t169 39.5q141 0 172 -131l33 115h242l-160 -602q-12 -24 -12 -45q0 -27 6 -36t23 -9q40 0 97 57t103 143q82 137 82 291
q0 125 -73.5 232.5t-197.5 171t-265 63.5q-185 0 -330.5 -77.5t-227 -220t-81.5 -320.5q0 -176 84 -316.5t236 -219.5t339 -79q141 0 262.5 71.5t212.5 194.5zM856 1028q-65 0 -121.5 -93.5t-90 -215.5t-33.5 -194q0 -59 22 -93t59 -34q72 0 130.5 89.5t91 210t32.5 187.5
q0 63 -24 103t-66 40z" />
    <glyph glyph-name="A" unicode="A" horiz-adv-x="1532" 
d="M910 475h-471l-41 -73q-40 -70 -57 -115.5t-17 -89.5q0 -66 44 -82q24 -8 61 -14.5t79 -6.5l-24 -94h-578l24 94q43 0 75 7.5t61 22.5q50 26 86 89l762 1299h163l177 -1262q10 -69 33 -104q23 -31 60 -42q17 -4 44.5 -7t58.5 -3l-20 -94h-688l20 94l64 3q27 0 55 8
t44.5 27t16.5 53l-2 27l-2 34zM889 590l-61 582l-328 -582h389z" />
    <glyph glyph-name="B" unicode="B" horiz-adv-x="1577" 
d="M1094 778q93 -16 143 -31.5t99 -45.5q72 -48 115.5 -127.5t43.5 -163.5q0 -96 -53.5 -185.5t-146.5 -142.5q-78 -44 -163.5 -63t-230.5 -19h-893l21 94q47 0 84 4.5t58 11.5q38 10 58 44.5t46 136.5l229 913l12 63q8 42 9 48q0 30 -17.5 45t-65.5 22q-23 3 -57 5t-78 2
l21 90h594q87 0 150 -3t107 -10q85 -12 161 -49q61 -28 110 -75q45 -44 72 -104t27 -120q0 -168 -126 -239t-329 -101zM738 811h94q118 0 211 46.5t145.5 129t52.5 185.5q0 92 -55.5 154.5t-132.5 62.5h-82q-47 0 -65.5 -6.5t-29 -27.5t-24.5 -81zM709 709l-119 -479
q-12 -42 -12 -70q0 -36 28.5 -51t94.5 -15h114q90 0 163.5 45t115 125t41.5 179q0 137 -69 201.5t-218 64.5h-139z" />
    <glyph glyph-name="C" unicode="C" horiz-adv-x="1577" 
d="M1520 455q-66 -126 -137.5 -215t-159.5 -151q-83 -58 -183.5 -88t-220.5 -30q-213 0 -384.5 88.5t-266 244t-94.5 352.5q0 171 70.5 326t195.5 273q60 57 134 104t156 81q166 68 345 68q269 0 438 -140l103 111h78l-74 -578h-94q-10 117 -46.5 212t-93.5 160
t-134.5 100.5t-168.5 35.5q-149 0 -256.5 -80t-172.5 -208.5t-94.5 -278t-29.5 -281.5q0 -138 53 -244q28 -53 65 -92t88 -67q98 -55 233 -55q348 0 548 393z" />
    <glyph glyph-name="D" unicode="D" horiz-adv-x="1716" 
d="M262 1389l21 90h799q152 0 271 -40.5t201.5 -119t124.5 -191.5t42 -255q0 -126 -32 -249.5t-93 -233.5q-30 -55 -63.5 -99.5t-76.5 -87.5q-80 -80 -174 -125q-66 -32 -120 -47.5t-134 -23.5q-28 0 -93.5 -3.5t-94.5 -3.5h-881l24 94q48 0 85 4.5t58 11.5q38 10 58 44.5
t46 136.5l229 913q20 95 20 111q0 30 -17 44.5t-65 22.5q-23 3 -57 5t-78 2zM549 234q-16 -52 -16 -86q0 -54 127 -54h135q125 0 243.5 62.5t178.5 167.5q55 96 97 221.5t64.5 253.5t22.5 238q0 200 -113.5 276t-320.5 76q-55 0 -85.5 -9t-45.5 -31.5t-29 -70.5z" />
    <glyph glyph-name="E" unicode="E" horiz-adv-x="1532" 
d="M1258 0h-1287l21 94q43 0 66.5 2.5t53.5 7t54 22.5t39 55q12 28 33 110l229 913l11 39l10 40l4 32q0 44 -44.5 59t-176.5 15l24 90h1270l-70 -537h-90l5 55l3 40q0 109 -32 187t-102.5 121.5t-176.5 43.5h-160q-38 0 -61.5 -10t-38 -36.5t-27.5 -76.5l-110 -447
q52 0 94.5 7t90.5 22q76 24 132.5 81.5t87.5 156.5h99l-177 -701h-98q25 120 25 164q0 62 -26.5 99.5t-86.5 56.5q-37 13 -70 19q-45 9 -96 9l-123 -499l-16 -82q0 -58 86 -58h176q122 0 226 57t179 153.5t119 215.5l86 -24z" />
    <glyph glyph-name="F" unicode="F" horiz-adv-x="1463" 
d="M1049 381h-94l5 43l5 40l2 36q0 96 -37.5 142.5t-85.5 58t-180 28.5l-111 -450q-24 -72 -24 -115q0 -29 18 -44q20 -14 72.5 -20t158.5 -6l-24 -94h-799l20 94q43 0 66.5 2.5t52.5 7.5q32 4 56 23t39 54q8 22 15.5 46.5t16.5 63.5l230 913q24 95 24 111q0 42 -42 57
q-24 8 -68 12.5t-111 4.5l25 90h1327l-78 -516h-98l2 56l2 58q0 151 -75.5 231.5t-227.5 80.5h-180q-58 0 -84 -9q-25 -7 -40 -34.5t-32 -91.5l-107 -430q130 0 203.5 16.5t128 66.5t103.5 158h98z" />
    <glyph glyph-name="G" unicode="G" horiz-adv-x="1692" 
d="M1385 0h-86l-41 176q-103 -97 -228.5 -151t-263.5 -54q-185 0 -345 93.5t-253.5 253t-93.5 346.5q0 226 125.5 419.5t339.5 309t457 115.5q145 0 253 -37t222 -127l90 135h82l-74 -578h-98q-15 141 -45 221t-95 146.5t-152.5 103.5t-182.5 37q-105 0 -190.5 -43
t-155.5 -132t-134 -230q-106 -248 -106 -451q0 -145 45 -249t132 -157t208 -53q135 0 229 64t123 174l20 69l15 62q6 30 6 62t-17.5 49.5t-39.5 22t-35 6.5t-30 2l-62 1l20 91h684l-24 -91q-67 0 -99 -10t-49.5 -39.5t-32.5 -89.5z" />
    <glyph glyph-name="H" unicode="H" horiz-adv-x="1786" 
d="M1209 721h-512l-111 -442l-14 -50q-11 -41 -11 -65q0 -70 152 -70h41l-21 -94h-746l26 94q42 0 65.5 2.5t52.5 7.5q32 4 56 23t39 54q8 22 15.5 46.5t16.5 63.5l230 913q20 100 20 111q0 44 -42.5 59t-174.5 15l21 90h790l-25 -90q-68 0 -109 -4.5t-58 -12.5
q-35 -18 -55 -55.5t-40 -124.5l-94 -368h512l94 380l9 34l12 43l4 34q0 36 -36 54q-19 9 -50 14.5t-70 5.5h-28l24 90h729l-20 -90q-60 0 -96.5 -4.5t-51.5 -12.5q-36 -18 -54.5 -52t-43.5 -128l-225 -913q-11 -33 -18 -64t-7 -51q0 -27 18 -44q17 -14 63.5 -20t135.5 -6
l-20 -94h-762l20 94q49 0 80.5 4.5t57.5 13.5q39 12 59 49q19 40 41 130z" />
    <glyph glyph-name="I" unicode="I" horiz-adv-x="930" 
d="M266 1389l25 90h774l-24 -90q-60 0 -96.5 -4.5t-51.5 -12.5q-35 -18 -54 -54t-40 -126l-229 -913l-10 -34l-11 -44l-4 -37q0 -27 18 -44q19 -14 65 -20t138 -6l-24 -94h-775l20 94q48 0 85 4.5t58 11.5q38 10 58 44.5t46 136.5l229 913l11 40l10 41l4 30q0 44 -45 59
t-177 15z" />
    <glyph glyph-name="J" unicode="J" horiz-adv-x="1393" 
d="M770 1389l25 90h733l-25 -90l-12 -4q-34 0 -60 -3.5t-44 -10.5q-32 -11 -50.5 -46t-37.5 -116l-189 -754q-57 -231 -197.5 -357.5t-371.5 -126.5q-130 0 -232.5 51t-160.5 142t-58 205q0 81 30 147t85.5 103t122.5 37q52 0 94 -24t66 -66t24 -95q0 -79 -46.5 -129.5
t-117.5 -50.5q-35 0 -69 13.5t-49 31.5q-9 17 -17 17q-4 -7 -4 -13q0 -96 76.5 -160.5t173.5 -64.5q236 0 315 319l197 791q16 60 16 94q0 40 -42.5 55t-174.5 15z" />
    <glyph glyph-name="K" unicode="K" horiz-adv-x="1602" 
d="M1065 889l287 -610q35 -76 62 -112.5t67 -51t117 -21.5l-25 -94h-708l24 94q77 0 110 20t33 66q0 33 -28 95l-189 409l-233 -180l-57 -225l-10 -36l-12 -45l-3 -34q0 -27 18 -41.5t68 -21.5t135 -7l-24 -94h-771l25 94q47 0 83 4.5t58 11.5q38 11 59.5 47.5t45.5 133.5
l229 913l12 61q8 40 9 50q0 44 -42.5 59t-174.5 15l20 90h762l-21 -90l-36 -4q-65 0 -104 -17q-34 -13 -54.5 -51t-42.5 -125l-131 -524l672 553q61 55 61 110q0 30 -21 41q-13 6 -37 9.5t-61 3.5l-24 4l20 90h606l-24 -90q-33 0 -61 -3.5t-52 -10.5q-45 -11 -90 -40
t-125 -94z" />
    <glyph glyph-name="L" unicode="L" horiz-adv-x="1463" 
d="M1282 0h-1315l20 94q48 0 85 4.5t58 11.5q38 10 58 44.5t46 136.5l229 913l11 40l10 41l4 30q0 44 -45 59t-177 15l25 90h799l-25 -90l-132 -6q-25 0 -44 -11q-35 -16 -53.5 -50t-44.5 -130l-242 -971l-7 -40q-5 -27 -5 -41q0 -46 86 -46h172q94 0 182 41q45 22 82 48
t74 62q70 67 125 149q24 37 51 83q24 41 47 88l90 -28z" />
    <glyph glyph-name="M" unicode="M" horiz-adv-x="1950" 
d="M1512 1336l-697 -1336h-82l-81 1336l-246 -992q-21 -66 -21 -114q0 -47 16 -73q7 -13 17 -22.5t23 -14.5q22 -10 62 -16l79 -10l-21 -94h-569l25 94q42 0 72 5.5t60 18.5q51 23 80.5 75.5t53.5 146.5l217 864q23 91 25 111q0 43 -45 58q-24 8 -65.5 12t-111.5 4l25 90
h557l57 -1040l545 1040h574l-21 -90q-60 0 -96.5 -4.5t-50.5 -12.5q-35 -16 -54.5 -52t-44.5 -128l-225 -913q-11 -33 -18 -64.5t-7 -50.5q0 -40 42.5 -55t170.5 -15l-24 -94h-725l20 94q95 12 129.5 25t52 47t40.5 125z" />
    <glyph glyph-name="N" unicode="N" horiz-adv-x="1762" 
d="M1311 -45h-94l-594 1254l-209 -840q-21 -77 -21 -127q0 -71 48.5 -109.5t144.5 -38.5l-25 -94h-586l21 94q99 0 158 37.5t88.5 99t56.5 162.5l201 799q12 48 12 90q0 59 -47 81q-26 13 -68 19.5t-106 6.5l25 90h487l508 -1053l180 729q21 92 21 127q0 42 -14.5 64
t-51.5 33q-16 4 -44.5 7t-61.5 3h-25l21 90h561l-25 -90q-36 0 -66.5 -4t-72.5 -18.5t-68.5 -56.5t-46.5 -122z" />
    <glyph glyph-name="O" unicode="O" horiz-adv-x="1716" 
d="M1053 1508q143 0 270.5 -52.5t222 -148.5t147 -222.5t52.5 -273.5q0 -171 -72.5 -325t-200.5 -268.5t-298 -180.5t-359 -66q-197 0 -361.5 88.5t-259.5 243.5t-95 340q0 179 73 337.5t203.5 276.5t305.5 184.5t372 66.5zM1024 1409q-154 0 -267.5 -85.5t-185 -224.5
t-104.5 -296.5t-33 -298.5q0 -129 45.5 -226t129.5 -146.5t202 -49.5q78 0 154 26q39 13 72 30t65 41q62 47 102 108q61 92 112 220q46 120 73.5 254.5t27.5 254.5q0 91 -28 163.5t-78.5 123t-123 78.5t-163.5 28z" />
    <glyph glyph-name="P" unicode="P" horiz-adv-x="1532" 
d="M668 631l-86 -352q-25 -78 -25 -115q0 -29 18.5 -43.5t68 -20.5t147.5 -6l-25 -94h-791l25 94q48 0 84.5 4.5t58.5 11.5q36 10 59 48q19 35 44 133l229 913q21 89 21 111q0 44 -42.5 59t-174.5 15l20 90h664q160 0 239.5 -11t157.5 -46q71 -32 126.5 -88.5t85.5 -127.5
t30 -141q0 -67 -29 -139t-82.5 -131.5t-118.5 -93.5q-72 -40 -150 -55t-218 -15h-336zM692 733h119q98 0 152.5 8t105.5 33q91 41 152 156t61 242q0 98 -54 157.5t-146 59.5h-95q-72 0 -106 -25.5t-53 -97.5z" />
    <glyph glyph-name="Q" unicode="Q" horiz-adv-x="1716" 
d="M1561 -90q-117 -217 -311 -217q-100 0 -167 63t-67 162l3 32l5 50q-87 -29 -131 -29q-220 0 -409.5 96.5t-299.5 259.5t-110 357q0 160 73.5 310.5t201 264.5t295.5 182q84 33 169 50t174 17q205 0 372.5 -90t262 -247t94.5 -347q0 -95 -28.5 -197.5t-80.5 -197.5
t-124 -171q-24 -27 -41 -44q-21 -21 -42 -37q-11 -9 -54 -41q-64 -48 -84 -62l4 -25q8 -18 15.5 -82.5t22 -99.5t52.5 -35q33 0 59.5 24.5t71.5 98.5zM1213 262q188 365 188 713q0 136 -46 231.5t-136 145t-219 49.5q-153 0 -268.5 -79.5t-191.5 -210.5t-113.5 -285
t-37.5 -293q0 -72 37 -226q50 267 369 267q100 0 183 -31t140 -88q38 -33 58 -76.5t37 -116.5zM1037 115q24 93 24 156q0 89 -55.5 140.5t-153.5 51.5q-99 0 -168 -59t-69 -142q0 -180 241 -180q95 0 181 33z" />
    <glyph glyph-name="R" unicode="R" horiz-adv-x="1647" 
d="M1565 254q-101 -283 -295 -283q-130 0 -198 86t-68 218q0 44 18 137q9 46 14 81t5 60q0 86 -51.5 125t-165.5 39h-144l-110 -438q-21 -92 -21 -111q0 -30 17 -47q17 -15 63 -21t137 -6l-24 -94h-771l25 94q39 0 71 3q34 5 45 6q31 4 53.5 19.5t39 53t33.5 103.5l233 925
l12 61q8 40 9 50q0 44 -42.5 59t-174.5 15l20 90h721q155 0 239.5 -15t157.5 -55q83 -44 129.5 -120t46.5 -166q0 -72 -29.5 -136t-82.5 -113t-122 -74.5t-123 -34t-95.5 -12t-75.5 -3.5q258 -104 258 -377q0 -11 -2 -45t-2 -46q0 -19 -1.5 -40.5t-2.5 -44.5q0 -94 45 -94
q31 0 67.5 51t59.5 125zM705 819h160q175 0 286 88t111 257q0 69 -26 120t-75 78t-116 27h-74q-67 0 -101.5 -29t-54.5 -102z" />
    <glyph glyph-name="S" unicode="S" horiz-adv-x="1417" 
d="M1344 918h-86q-21 127 -42 200t-72.5 137.5t-133.5 103t-166 38.5q-75 0 -138.5 -28t-102 -76.5t-38.5 -104.5q0 -110 81 -167q74 -53 268 -144q186 -86 283.5 -180t97.5 -254q0 -150 -83 -257t-215 -161t-280 -54q-277 0 -512 164l-98 -135h-94l110 586h103
q0 -67 6.5 -123t18.5 -96q22 -75 81 -137q134 -148 373 -148q95 0 177.5 30t130.5 81.5t48 113.5q0 100 -81 156t-279 154t-300 199t-102 266q0 115 69 212t189 155.5t254 58.5q120 0 241.5 -45.5t209.5 -122.5l106 139h86z" />
    <glyph glyph-name="T" unicode="T" horiz-adv-x="1483" 
d="M201 910h-107l185 569h1376l-86 -569h-94q0 89 -5.5 156t-14.5 120q-15 86 -84 136t-224 50q-17 0 -28 -9t-17 -25l-12 -31l-254 -1028q-25 -102 -25 -115q0 -29 20.5 -43.5t76.5 -20.5t169 -6l-20 -94h-848l21 94q58 0 95 3t62 8q43 9 67.5 46.5t53.5 139.5l242 983
l12 49q0 22 -12.5 35.5t-32.5 13.5q-197 0 -352 -180q-88 -99 -164 -282z" />
    <glyph glyph-name="U" unicode="U" horiz-adv-x="1716" 
d="M299 1389l25 90h717l-25 -90q-16 0 -20 -4q-36 0 -60 -3.5t-45 -11.5q-31 -12 -50 -47t-38 -114l-172 -684q-29 -118 -29 -177q0 -120 71.5 -187t203.5 -67q112 0 192 43q40 22 74.5 55.5t62.5 79.5q56 92 93 236l164 651l12 99q0 46 -13.5 72.5t-46 38.5t-100.5 20
l21 90h503l-24 -90q-100 -15 -156 -46.5t-78 -113.5l-184 -729q-36 -146 -85.5 -245.5t-118.5 -161.5t-161.5 -92t-216.5 -30q-163 0 -279.5 52t-178.5 150t-62 233q0 111 37 250l143 573q17 57 17 86v4q0 70 -156 70h-37z" />
    <glyph glyph-name="V" unicode="V" horiz-adv-x="1532" 
d="M627 -33h-119l-176 1307q-9 67 -33 89q-13 13 -35 19.5t-55 6.5l25 90h610l-20 -90q-41 0 -68 -3t-54 -9.5t-38.5 -26.5t-11.5 -68v-37l98 -884l512 778q45 71 45 139q0 59 -37 83q-20 13 -54 20.5t-81 7.5l20 90h545l-24 -90q-125 -12 -259 -213z" />
    <glyph glyph-name="W" unicode="W" horiz-adv-x="1950" 
d="M1250 -33h-115l-66 984l-516 -984h-102l-103 1299q0 32 -9.5 54t-26.5 35q-29 23 -103 34l21 90h565l-25 -90q-63 -9 -88.5 -20t-34 -34.5t-8.5 -72.5v-21l49 -807l365 701l-10 133q0 19 -4 36t-9 27q-9 20 -32.5 30t-92.5 28l25 90h582l-25 -90q-11 -4 -29 -4
q-28 0 -48 -3.5t-42 -11.5t-31.5 -31t-9.5 -69v-25l54 -811l368 734q41 76 41 131q0 53 -28 69q-15 10 -43.5 15.5t-71.5 5.5l24 90h467l-24 -90q-85 -18 -136 -60.5t-102 -140.5z" />
    <glyph glyph-name="X" unicode="X" horiz-adv-x="1532" 
d="M697 717l-164 520q-24 73 -37.5 99t-46 39.5t-92.5 13.5l24 90h594l-20 -90l-40 -4q-32 0 -49.5 -9.5t-17.5 -35.5l2 -22l4 -20l6 -28l99 -262l205 233q45 60 45 95q0 27 -15.5 34.5t-33 11t-46.5 3.5l-24 4l24 90h508l-20 -90q-147 0 -283 -160l-315 -364l180 -611
q27 -86 59 -118t97 -42l-21 -94h-610l20 94h29q30 0 52 4.5t34 11.5q21 12 21 46q0 26 -21 70l-94 344l-258 -287q-41 -44 -51.5 -61t-10.5 -42q0 -40 28 -58t107 -28l-20 -94h-537l25 94q118 12 221 127z" />
    <glyph glyph-name="Y" unicode="Y" horiz-adv-x="1463" 
d="M959 611l-86 -332q-21 -95 -21 -115q0 -29 18.5 -43.5t68 -20.5t147.5 -6l-25 -94h-790l20 94q48 0 88.5 3.5t63.5 9.5q42 10 68 48q22 35 50 136l78 320l-274 598q-30 71 -50.5 102.5t-55.5 50.5t-103 27l20 90h680l-20 -90q-54 0 -88.5 -4.5t-57 -12.5t-22.5 -45
q0 -11 4 -24.5t16 -40.5l217 -553l332 455q58 79 58 131q0 30 -17 49t-45 28q-9 3 -25 5.5l-36 5.5l-58 6l25 90h582l-21 -90q-102 -15 -168.5 -57t-138.5 -136z" />
    <glyph glyph-name="Z" unicode="Z" horiz-adv-x="1463" 
d="M1233 0h-1208l-4 94l1073 1295h-180q-127 0 -231.5 -46t-190 -142.5t-160.5 -245.5l-90 28l151 496h1090v-90l-1040 -1295h221q166 0 286 57t204.5 160.5t160.5 258.5l98 -29z" />
    <glyph glyph-name="bracketleft" unicode="[" horiz-adv-x="860" 
d="M701 -295h-578l442 1774h553l-24 -102h-262l-393 -1570h286z" />
    <glyph glyph-name="backslash" unicode="\" horiz-adv-x="1254" 
d="M291 1479h250l639 -1774h-250z" />
    <glyph glyph-name="bracketright" unicode="]" horiz-adv-x="860" 
d="M176 1479h574l-443 -1770h-553l25 102h266l389 1566h-286z" />
    <glyph glyph-name="asciicircum" unicode="^" horiz-adv-x="1254" 
d="M836 1479l414 -795h-304l-241 500l-246 -500h-299l414 795h262z" />
    <glyph glyph-name="underscore" unicode="_" horiz-adv-x="1045" 
d="M815 -344h-1024l49 192h1025z" />
    <glyph glyph-name="grave" unicode="`" horiz-adv-x="697" 
d="M619 1168l-332 122q-102 36 -102 107q0 20 6 36t20 31q26 27 64 27q42 0 106 -49l275 -217z" />
    <glyph glyph-name="a" unicode="a" horiz-adv-x="1393" 
d="M1389 320q-53 -107 -116 -187t-127.5 -121t-125.5 -41q-90 0 -143.5 45t-81.5 144q-159 -171 -365 -189q-109 0 -194 57.5t-134 154t-49 202.5q0 162 75 305.5t199.5 228.5t266.5 85q216 0 320 -176l41 151h278l-176 -713q-12 -36 -12 -81q0 -62 37 -62q36 0 85.5 58
t122.5 184zM684 865q-104 0 -179.5 -98.5t-116.5 -238.5q-20 -71 -30 -129t-10 -112q0 -81 41.5 -126.5t114.5 -45.5q109 0 190 91.5t121.5 220.5t40.5 233q0 90 -48 147.5t-124 57.5z" />
    <glyph glyph-name="b" unicode="b" horiz-adv-x="1278" 
d="M529 848q149 156 315 156q99 0 185 -54.5t135 -146.5t49 -201q0 -167 -88 -312t-238 -232q-76 -43 -155.5 -65t-166.5 -22q-179 0 -302 111.5t-123 274.5q0 55 36 213l160 634q17 76 17 107q0 86 -140 86l21 82q155 0 458 33zM778 885q-108 0 -191.5 -106t-128 -252.5
t-44.5 -251.5q0 -89 43.5 -141t116.5 -52q104 0 181 114t118 266.5t41 254.5q0 80 -35.5 124t-100.5 44z" />
    <glyph glyph-name="c" unicode="c" horiz-adv-x="1114" 
d="M1032 266q-109 -153 -221.5 -224t-249.5 -71t-255 64q-57 32 -105 75t-82 97q-70 110 -70 236q0 148 86 277t234 206.5t315 77.5q120 0 216 -36q48 -17 85.5 -41t65.5 -57q55 -62 55 -141q0 -69 -45.5 -118.5t-109.5 -49.5q-65 0 -110.5 43.5t-45.5 104.5q0 59 45 95
t115 36q17 0 24 -4q17 0 17 8q0 7 -29 25q-80 36 -180 36q-130 0 -229.5 -62.5t-154.5 -177t-55 -259.5q0 -97 31 -170t88 -113.5t131 -40.5q86 0 163.5 51.5t201.5 190.5z" />
    <glyph glyph-name="d" unicode="d" horiz-adv-x="1393" 
d="M1385 316q-83 -164 -179 -254.5t-186 -90.5t-144.5 44t-80.5 141q-80 -83 -169 -129q-50 -27 -98.5 -41.5t-101.5 -14.5q-81 0 -150.5 34.5t-120.5 93.5t-78 133q-14 40 -21 76t-7 77q0 158 76.5 302t201.5 230.5t263 86.5q213 0 324 -180l94 380q10 41 15 66.5t5 36.5
q0 90 -143 90l20 82q156 0 459 33l-311 -1250q-4 -21 -6 -38.5t-2 -38.5q0 -62 32 -62q71 0 213 238zM680 865q-102 0 -178 -99.5t-115 -238.5t-39 -244q0 -80 40.5 -124t111.5 -44q83 0 151 54t111.5 137.5t66.5 178.5t23 171q0 93 -47.5 151t-124.5 58z" />
    <glyph glyph-name="e" unicode="e" horiz-adv-x="1069" 
d="M987 234q-77 -89 -159 -149q-76 -56 -161 -86q-44 -14 -85 -21t-90 -7q-128 0 -228.5 55t-157.5 154t-57 222q0 114 54 224t146.5 194.5t215.5 134t248 49.5q94 0 169 -30.5t117 -84.5t42 -119q0 -293 -680 -385q-17 -49 -17 -90q0 -94 58 -147.5t159 -53.5
q179 0 365 205zM373 484q152 39 223.5 64t135 85t63.5 162q0 46 -29.5 78t-73.5 32q-88 0 -172 -90q-47 -51 -75.5 -116t-71.5 -215z" />
    <glyph glyph-name="f" unicode="f" horiz-adv-x="811" 
d="M840 893h-217l-287 -1151l-303 -90l311 1241h-217l21 86h217q22 89 41 155t37 117q34 97 116.5 177t218.5 80q59 0 111 -26.5t83.5 -73.5t31.5 -97q0 -61 -38.5 -102t-96.5 -41q-54 0 -95 39.5t-41 91.5q0 49 33 90q12 18 12 24q0 17 -20 17q-30 0 -65 -21
q-32 -22 -53 -54.5t-21 -64.5q0 -38 18 -118q9 -41 14 -71t5 -52l-9 -70h213z" />
    <glyph glyph-name="g" unicode="g" horiz-adv-x="1278" 
d="M987 889q111 -86 111 -209q0 -74 -41.5 -141.5t-116.5 -112.5t-158 -66q-41 -10 -91.5 -15t-116.5 -5l-80 2l-80 2q-164 0 -164 -73q0 -25 12.5 -35t51.5 -15l125 -4h73q206 0 359 -55.5t153 -223.5q0 -141 -147.5 -216t-425.5 -75q-175 0 -297 28.5t-185 82.5t-63 131
q0 73 46.5 110.5t170.5 66.5q-90 56 -90 143q0 157 254 201q-79 43 -115.5 99t-36.5 138q0 99 59 175.5t168 118.5t249 42q160 0 294 -49q161 127 259 127q66 0 116.5 -44.5t50.5 -102.5q0 -50 -34.5 -84.5t-83.5 -34.5q-46 0 -76.5 27.5t-30.5 70.5q0 35 21 62l3 1l1 3
q-7 4 -13 4q-42 0 -131 -74zM660 893q-61 0 -117.5 -42t-92.5 -113t-36 -148q0 -74 40.5 -117t110.5 -43q149 0 209 185q33 92 33 143q0 59 -39 94t-108 41zM447 8q-324 0 -324 -135q0 -62 81.5 -98.5t217.5 -36.5q348 0 348 143q0 127 -307 127h-16z" />
    <glyph glyph-name="h" unicode="h" horiz-adv-x="1417" 
d="M1454 332l-58.5 -110.5l-44.5 -78.5q-37 -62 -102.5 -117t-154.5 -55q-55 0 -102 27t-75 72t-28 98q0 45 15 102q20 74 25 91l25 79q38 122 54 188.5t16 117.5q0 98 -127 98q-112 0 -213.5 -76.5t-173 -191.5t-100.5 -228l-86 -348h-283l303 1204q17 73 17 107
q0 86 -140 86l21 86q192 0 459 29l-181 -725q82 103 195 160t244 57q90 0 171 -35q77 -32 126 -93q23 -30 35 -62t12 -68t-12 -89t-46 -169l-61 -222q-20 -77 -20 -90q0 -14 8 -23t20 -9q31 0 69.5 47t102.5 162l17 24z" />
    <glyph glyph-name="i" unicode="i" horiz-adv-x="811" 
d="M643 1008l-192 -778q-17 -53 -17 -78q0 -29 21 -29q43 0 201 221l73 -49q-44 -73 -102 -147t-128 -125.5t-142 -51.5q-83 0 -136 56t-53 141q0 60 29 176l102 402q17 71 17 82q0 42 -34 54q-15 5 -36.5 8t-48.5 3l20 86q174 0 426 29zM570 1508q67 0 115 -49.5t48 -118.5
q0 -68 -47.5 -116t-115.5 -48q-69 0 -118.5 48t-49.5 116q0 70 49 119t119 49z" />
    <glyph glyph-name="j" unicode="j" horiz-adv-x="766" 
d="M692 1008l-229 -922q-32 -138 -97 -240t-152.5 -158.5t-180.5 -56.5q-85 0 -135 38t-50 101q0 48 32.5 83.5t78.5 35.5q48 0 77.5 -30.5t29.5 -79.5q0 -11 -6.5 -21.5t-6.5 -15.5q0 -12 13 -13q36 0 66 53q14 24 25 58t15 70q26 253 82 459l94 381q17 48 17 82
q0 61 -119 61l20 86q81 0 426 29zM619 1508q66 0 117 -49t51 -119q0 -66 -50 -115t-118 -49q-46 0 -83 22q-20 13 -33 25.5t-26 33.5q-22 37 -22 83q0 69 48.5 118.5t115.5 49.5z" />
    <glyph glyph-name="k" unicode="k" horiz-adv-x="1348" 
d="M1315 275q-44 -84 -99.5 -151t-130 -110t-159.5 -43q-95 0 -154 58t-59 151q0 34 12 114q4 26 8.5 64.5t4.5 55.5q-44 -33 -91 -33q-38 0 -68 24t-30 54q0 29 24.5 51.5t57.5 22.5q21 0 60 -11q42 -10 59 -10q47 0 109 38t105.5 93.5t43.5 102.5q0 40 -26 69
q-24 29 -64 29q-95 0 -226 -123q-100 -97 -162 -209q-30 -53 -53.5 -107.5t-41.5 -112.5q-29 -97 -74 -292h-283l303 1204q17 76 17 107q0 86 -140 86l21 82q214 0 459 33l-205 -820q104 141 223.5 226.5t263.5 85.5q102 0 174 -62.5t72 -154.5q0 -109 -118 -208
q-60 -48 -134 -82t-166 -54q61 -33 90 -92.5t41 -174.5q0 -37 13 -55t36 -18q84 0 213 213z" />
    <glyph glyph-name="l" unicode="l" horiz-adv-x="811" 
d="M778 1508l-323 -1291q-12 -62 -12 -73q0 -29 20 -29q54 0 201 229l69 -45q-191 -328 -372 -328q-51 0 -94 26.5t-67 72t-24 102.5q0 55 21 127l225 910q8 33 17 77q4 20 4 21q0 86 -144 86l21 86q96 0 210.5 7t247.5 22z" />
    <glyph glyph-name="m" unicode="m" horiz-adv-x="1950" 
d="M979 0h-278l180 729q8 46 8 62q0 74 -57 74q-42 0 -101 -41t-112 -111q-93 -134 -135 -311l-103 -402h-278l188 762q8 43 8 66q0 36 -24.5 50.5t-85.5 14.5h-33l20 86q220 0 410 17l-29 -209q166 217 373 217q92 0 146.5 -63.5t54.5 -174.5v-4q71 104 169 173t212 69
q72 0 134 -32q59 -29 93.5 -85.5t34.5 -124.5q0 -36 -7 -75t-22 -89l-106 -315l-16 -41l-19 -49q-6 -20 -6 -41q0 -13 7 -21q7 -6 17 -8q53 0 201 238l74 -45q-99 -189 -183 -267t-194 -78q-92 0 -144.5 51.5t-52.5 137.5q0 47 29 131l135 414q12 36 12 78q0 94 -65 94
q-92 0 -167.5 -92.5t-124.5 -212.5q-25 -60 -43 -113.5t-34 -114.5z" />
    <glyph glyph-name="n" unicode="n" horiz-adv-x="1417" 
d="M328 0h-283l189 750q8 51 8 69q0 74 -115 74h-28l20 86q18 0 65.5 2t55.5 2q35 0 68 3q49 6 75 8l150 14l-49 -258q61 76 135 132t164 90q44 16 88.5 24t95.5 8q94 0 170.5 -31.5t119 -89t42.5 -129.5q0 -63 -45 -189l-95 -274q-41 -106 -41 -143q0 -33 25 -33
q53 0 193 225l73 -49q-93 -175 -176 -247.5t-192 -72.5q-97 0 -149 51t-52 146q0 60 41 176l119 336q20 57 20 115q0 40 -28 65t-74 25q-93 0 -197 -72.5t-185.5 -189t-113.5 -246.5z" />
    <glyph glyph-name="o" unicode="o" 
d="M619 1004q151 0 267.5 -57.5t180.5 -164t64 -241.5q0 -152 -81.5 -284t-219 -209t-297.5 -77q-140 0 -249.5 60.5t-172 169.5t-62.5 246q0 154 74.5 281.5t205.5 201.5t290 74zM668 897q-108 0 -178 -101t-101.5 -240t-31.5 -253q0 -102 44.5 -161.5t123.5 -59.5
q108 0 177 117t99 269q15 78 23 143t8 122q0 49 -20 86t-57.5 57.5t-86.5 20.5z" />
    <glyph glyph-name="p" unicode="p" horiz-adv-x="1348" 
d="M357 140l-70 -275l-6 -29l-4 -24l-2 -21q0 -45 82 -45h26q15 -3 22 -4l46 -4l-21 -86h-606l20 86q46 0 74.5 6.5t45.5 19.5q28 19 49 88l229 922q12 30 12 58q0 61 -119 61h-20l20 86q81 0 163 3q245 9 272 9l-37 -143q155 156 372 156q105 0 191.5 -52.5t136 -143.5
t49.5 -202q0 -166 -80 -313t-217.5 -234.5t-292.5 -87.5q-244 0 -335 169zM811 865q-108 0 -195 -90t-136.5 -222.5t-49.5 -232.5q0 -105 49.5 -161t135.5 -56q70 0 134 44.5t117 125.5q24 37 44.5 83t35.5 97q29 102 29 211q0 94 -43.5 147.5t-120.5 53.5z" />
    <glyph glyph-name="q" unicode="q" horiz-adv-x="1299" 
d="M738 144q-90 -90 -160 -125.5t-160 -35.5q-103 0 -188 54t-133 149.5t-48 215.5q0 158 91 297t245 222t328 83q182 0 299 -123l94 98h119l-270 -1090q-17 -56 -17 -82q0 -39 19.5 -52.5t48.5 -13.5l67 -3l-20 -86h-569l20 86q56 0 84 8.5t46 33.5q8 11 15.5 30t14.5 46z
M701 926q-83 0 -150.5 -61t-113 -155t-69.5 -194t-24 -176q0 -103 41 -164t115 -61q68 0 132.5 51t114.5 141q24 42 44.5 94.5t35.5 109.5q29 116 29 235q0 81 -42.5 130.5t-112.5 49.5z" />
    <glyph glyph-name="r" unicode="r" horiz-adv-x="1069" 
d="M365 0h-283l172 688q21 77 21 123q0 44 -24 63t-83 19h-33l21 86q214 0 405 29l-53 -320q96 158 197.5 237t199.5 79q77 0 133 -56.5t56 -136.5q0 -66 -43.5 -112.5t-108.5 -46.5q-58 0 -96.5 35.5t-38.5 90.5q0 43 21 70q6 6 8 17q0 12 -21 12q-35 0 -99 -61.5
t-134 -163.5q-88 -137 -127 -291z" />
    <glyph glyph-name="s" unicode="s" horiz-adv-x="1000" 
d="M582 1004q153 0 258.5 -70.5t105.5 -171.5q0 -58 -37.5 -100.5t-89.5 -42.5q-48 0 -83 37t-35 90q0 35 20.5 63t48.5 31q20 0 21 8q0 14 -64.5 42t-136.5 28q-55 0 -102.5 -16.5t-73 -45t-25.5 -61.5q0 -65 47.5 -92t180.5 -80q128 -49 194 -110t66 -173q0 -102 -54 -186
t-152.5 -133.5t-215.5 -49.5q-112 0 -206 40.5t-151 109.5t-57 145q0 64 35 102t96 38q56 0 91.5 -35.5t35.5 -91.5q0 -41 -19 -63t-44.5 -34.5t-26.5 -17.5q0 -16 57 -45q62 -37 144 -37q106 0 174 47.5t68 120.5q0 32 -13.5 51t-58.5 41q-19 9 -57 24l-84 32
q-143 50 -209 119.5t-66 170.5q0 103 62.5 175t159 106.5t196.5 34.5z" />
    <glyph glyph-name="t" unicode="t" horiz-adv-x="860" 
d="M778 299q-70 -135 -171.5 -231.5t-225.5 -96.5q-93 0 -151 56t-58 141q0 20 3 45.5t10 57.5l159 622h-196l20 86h197l78 307h278l-78 -307h222l-25 -86h-217l-164 -659q-12 -54 -12 -74q0 -45 32 -45q56 0 113 72.5t113 165.5z" />
    <glyph glyph-name="u" unicode="u" horiz-adv-x="1417" 
d="M824 226q-74 -107 -173 -181t-208 -74q-69 0 -127 34t-90.5 89.5t-32.5 122.5q0 33 4 63.5t16 80.5l103 405q5 29 6.5 39t1.5 19q0 43 -21 56t-98 13h-16l20 86q20 0 72 2t60 2q36 0 80 4l76 7l159 14l-177 -709l-8 -65q0 -78 70 -78q53 0 128.5 63t146 166.5
t114.5 274.5l78 319h282l-188 -753l-6 -23l-8 -27l-2 -20q0 -33 24 -33q37 0 96 65t121 173l86 -62q-173 -328 -372 -328q-92 0 -157 62.5t-65 151.5q0 21 5 41z" />
    <glyph glyph-name="v" unicode="v" horiz-adv-x="1159" 
d="M598 1008l-155 -631q-17 -60 -17 -111q0 -68 33.5 -109.5t85.5 -41.5q101 0 203.5 80.5t173.5 213t86 275.5v29q0 12 -8 12l-4 -4q-34 -20 -70 -20q-64 0 -108 45.5t-44 109.5q0 61 44.5 104.5t107.5 43.5q57 0 103 -32.5t71 -91.5q27 -57 27 -130q0 -173 -91.5 -356
t-248.5 -303t-332 -120q-82 0 -150.5 41.5t-106.5 114t-38 160.5q0 61 11 111q8 41 13 62.5t22 80.5l21.5 79t14.5 61.5t9 59t3 58.5q0 94 -123 94l21 86q21 0 71.5 2t59.5 2q39 0 75 3q54 6 82 8z" />
    <glyph glyph-name="w" unicode="w" horiz-adv-x="1716" 
d="M803 254q-72 -118 -190.5 -200.5t-219.5 -82.5q-105 0 -181.5 78.5t-76.5 184.5q0 61 13 123l98 385q16 63 16 82q0 69 -98 69h-41l21 86q21 0 71.5 2t58.5 2q36 0 80.5 4l76.5 7l163 14l-176 -705q-20 -75 -20 -110q0 -34 19 -56t50 -22q37 0 95.5 37.5t101.5 89.5
q49 59 93 144t62 159l107 434h283l-136 -540q-24 -114 -24 -181q0 -57 33 -96t82 -39q103 0 203.5 100.5t163.5 238.5t63 235v8q0 6 -9 8q-12 0 -28 -4t-29 -4q-64 0 -110 43t-46 104q0 68 45 110t115 42q86 0 137.5 -63t51.5 -167q0 -123 -51.5 -264t-142.5 -264
t-205.5 -199t-231.5 -76q-77 0 -140.5 35.5t-101 99t-45.5 148.5z" />
    <glyph glyph-name="x" unicode="x" 
d="M1180 312q-54 -118 -107.5 -193.5t-108.5 -111.5t-120 -36q-69 0 -120 41q-52 38 -87 101t-62 135l-46 133q-93 -197 -197.5 -303.5t-208.5 -106.5q-68 0 -118 50t-50 119q0 64 41 105.5t103 41.5q53 0 85 -29t48 -65l14 -37q8 0 20 12q41 33 78 82.5t88 136.5l52 88
l-53 130q-51 125 -85.5 188t-62.5 63q-65 0 -160 -188l-74 45q149 291 344 291q70 0 119 -43.5t79.5 -107t55.5 -140.5l81 102q42 54 82 92q44 42 97 69.5t113 27.5q79 0 134 -47.5t55 -120.5q0 -58 -39 -98.5t-97 -40.5q-55 0 -99 43.5t-52 103.5q0 19 -8 21q-22 0 -97 -85
q-69 -81 -125 -157q19 -37 25 -58q18 -16 65.5 -139t84.5 -196.5t75 -73.5q62 0 160 192z" />
    <glyph glyph-name="y" unicode="y" horiz-adv-x="1069" 
d="M688 189l83 113q45 60 84.5 120t69.5 122t30 99q0 29 -12 53q-8 16 -15 27.5t-20 30.5q-22 33 -32.5 53.5t-10.5 52.5q0 65 39 104.5t100 39.5q58 0 98.5 -43.5t40.5 -108.5q0 -95 -69.5 -235.5t-148.5 -257.5l-56 -83l-65 -93l-75 -105q-145 -201 -274 -328t-275 -127
q-80 0 -136.5 51.5t-56.5 124.5q0 69 36.5 110.5t95.5 41.5q52 0 85.5 -33.5t33.5 -85.5q0 -33 -23 -70q-7 -12 -18 -35q-1 -2 -4 -6q0 -6 12 -8q31 0 90 44q52 37 115 97q56 54 90 93l-229 696q-62 164 -115 164q-31 0 -62 -37q-29 -37 -73 -127l-62 54q62 138 131 222.5
t176 84.5q82 0 134 -55.5t104 -206.5z" />
    <glyph glyph-name="z" unicode="z" horiz-adv-x="1069" 
d="M979 299q-48 -146 -149.5 -237t-218.5 -91q-72 0 -135 28q-69 31 -125 71l-108 76q-47 34 -71 34q-16 0 -28.5 -14t-12.5 -31q0 -14 4.5 -35t4.5 -30q0 -42 -20 -70.5t-50 -28.5q-31 0 -55 27q-11 13 -17 29t-6 35q0 61 46.5 140.5t117.5 137.5q63 54 143 92t201 85
q131 51 208 91.5t132 100.5q-80 -45 -123 -45q-81 0 -127.5 22.5t-125 71.5t-120.5 49q-51 0 -87 -29q-18 -14 -38 -39.5t-43 -62.5l-77 33q71 137 144 216t187 79q55 0 114 -25q32 -13 64 -29t75 -41l54 -31q40 -23 66 -35q38 -19 70 -19q15 0 29 12t16 29q0 10 -9.5 34.5
t-11.5 38.5q0 29 19 47.5t47 18.5q33 0 53.5 -28t20.5 -75q0 -71 -53.5 -165.5t-135.5 -170.5q-75 -69 -151 -110.5t-151 -67.5l-155 -57q-84 -31 -133 -68q116 33 172 33q60 0 99 -21t114.5 -69.5t106.5 -48.5q33 0 68 42t87 146z" />
    <glyph glyph-name="braceleft" unicode="{" horiz-adv-x="860" 
d="M377 606q71 -18 99 -50.5t28 -100.5q0 -41 -12 -98l-111 -410l-4 -62q0 -113 111 -143h-74q-126 0 -184 38t-58 117q0 49 21 124l102 389q8 30 8 74q0 45 -33 79t-90 43q173 38 218 197l114 434q34 131 132 186.5t245 55.5h57l-10 -4l-10 -4q-43 -15 -74 -33t-55 -42
q-44 -44 -64 -122l-114 -434q-29 -103 -84 -156t-158 -78z" />
    <glyph glyph-name="bar" unicode="|" horiz-adv-x="1254" 
d="M570 -295v1774h254v-1774h-254z" />
    <glyph glyph-name="braceright" unicode="}" horiz-adv-x="860" 
d="M529 606q-73 22 -102 54t-29 98q0 32 12 82l115 434l8 66q0 54 -27 79.5t-88 59.5h57q140 0 201.5 -36.5t61.5 -119.5q0 -43 -13 -86l-114 -434q-9 -24 -9 -57q0 -52 31.5 -89t91.5 -51q-172 -24 -217 -196l-102 -389q-39 -150 -125 -214.5t-244 -64.5h-78
q83 21 139 74.5t74 130.5l111 410q27 114 82.5 169.5t163.5 79.5z" />
    <glyph glyph-name="asciitilde" unicode="~" horiz-adv-x="1114" 
d="M926 824l65 -74q-80 -197 -241 -197q-58 0 -127 36l-136 72q-68 36 -126 36q-49 0 -79.5 -30.5t-88.5 -137.5l-74 77q100 193 242 193q44 0 91 -19q29 -11 52.5 -22t67.5 -35t58 -31l45 -21q36 -15 71 -15q49 0 85 33.5t95 134.5z" />
    <glyph glyph-name="quotesinglbase" unicode="&#x201a;" horiz-adv-x="537" 
d="M-49 -299l-33 69q102 44 180 108t78 105q0 8 -38 20q-37 9 -65 33t-28 83q0 80 66 144.5t147 64.5q62 0 98.5 -36.5t36.5 -98.5q0 -90 -60 -188.5t-164 -182t-218 -121.5z" />
    <glyph glyph-name="quotedblbase" unicode="&#x201e;" 
d="M312 807l41 164h229q8 66 25 134.5t43 136.5q52 137 147 232t227 95q108 0 185 -54.5t77 -129.5q0 -53 -35.5 -86t-91.5 -33q-55 0 -87.5 22.5t-55.5 82t-45 59.5q-36 0 -73.5 -71.5t-53.5 -170.5q-16 -149 -33 -217h250l-41 -164h-229q-24 -183 -58.5 -375.5
t-76.5 -353.5q-132 -549 -447 -549q-108 0 -181 59t-73 146q0 52 36.5 87t90.5 35q61 0 88 -30.5t54 -85.5q24 -52 42 -52q23 0 52.5 30.5t46.5 72.5q29 82 54 208q12 58 23 119.5t23 136.5l43 307l33 245h-229z" />
    <glyph glyph-name="ellipsis" unicode="&#x2026;" horiz-adv-x="2065" 
d="M197 324q74 0 127 -51t53 -125q0 -75 -53 -128t-127 -53q-71 0 -123.5 53t-52.5 128q0 73 52 124q27 26 57 39t67 13zM881 324q72 0 124 -51t52 -125t-51 -127.5t-125 -53.5q-75 0 -125.5 53t-50.5 128q0 74 51 125t125 51zM1565 324q72 0 124 -51t52 -125t-51 -127.5
t-125 -53.5q-75 0 -125.5 53t-50.5 128q0 74 51 125t125 51z" />
    <glyph glyph-name="dagger" unicode="&#x2020;" horiz-adv-x="1045" 
d="M664 975q36 5 69 18q24 11 36.5 17.5t40.5 22.5q45 26 77 39.5t64 13.5q81 0 81 -86q0 -73 -43 -122.5t-108 -49.5q-9 0 -19 0.5t-27 7.5l-61 30l-67 33q-28 13 -60 19l-4 -62q0 -95 95 -229q-87 -106 -152 -244q-61 -132 -103 -264q-3 -11 -27 -94l-30 -107.5
l-37 -134.5l-65 -242h-82l48 209l36 152t25 115.5t19 103.5t17 118q15 113 15 220q0 64 -33 168q111 91 156 148t77 143q-45 -8 -75.5 -19.5t-31.5 -12.5l-42 -19q-44 -21 -73 -30t-56 -9q-41 0 -63.5 24t-22.5 62q0 70 44 121t103 51q34 0 55.5 -11.5t50.5 -39.5
q28 -25 55 -40q14 -7 30.5 -12t42.5 -8q4 15 7 49l5 45v8q0 40 -18 117q-9 40 -14 67t-5 46q0 81 53 141t127 60q46 0 76.5 -28t30.5 -75q0 -45 -22 -91.5t-75 -122.5l-34 -51l-45 -68q-28 -47 -41 -97z" />
    <glyph glyph-name="daggerdbl" unicode="&#x2021;" horiz-adv-x="1045" 
d="M389 94l-93 -45q-75 -37 -122 -57.5t-71 -20.5q-90 0 -90 99q0 66 45 113t110 47q36 0 59 -11t52.5 -32t53.5 -32q28 -11 69 -15v36q0 85 -99 156q47 32 81 62t53 57q38 53 38 127q0 44 -14 68q-6 12 -21.5 31t-37.5 40q80 41 120 82q20 21 38 48.5t34 62.5
q-23 -2 -41 -6t-34 -11q-31 -12 -70 -32t-71 -32q-13 -4 -29.5 -7t-32.5 -3q-43 0 -69 23.5t-26 62.5q0 65 48.5 118.5t107.5 53.5q39 0 66 -20q60 -48 85.5 -63t77.5 -27q13 59 13 86q0 44 -18.5 121.5t-18.5 115.5q0 61 24.5 110t69 78.5t98.5 29.5q52 0 83.5 -30
t31.5 -77q0 -46 -25.5 -97.5t-73 -120t-78.5 -120.5q-25 -42 -40 -96q90 22 131 45l55 33q3 2 17 9.5t29 13.5q24 9 51 9q90 0 90 -94q0 -44 -21.5 -81.5t-58 -60t-76.5 -22.5q-35 0 -59 9.5t-64 40.5q-17 15 -32 21.5t-41 11.5l-37 8v-37q0 -89 94 -156q-96 -65 -132 -119
t-36 -131q0 -39 13 -63t61 -72q-83 -43 -124 -83t-69 -109q21 0 36.5 3t41 13t66 30.5t71.5 32t64 11.5q42 0 68 -23t26 -63q0 -42 -23.5 -83t-60 -65.5t-72.5 -24.5q-22 0 -45 13l-62 41l-65 44q-25 16 -57 25q-4 -21 -6 -41.5t-2 -48.5q0 -40 18 -117.5t18 -120.5
q0 -95 -57 -158t-139 -63q-50 0 -84 29q-31 29 -31 78q0 48 25 98.5t74 121t78.5 120t43.5 102.5z" />
    <glyph glyph-name="perthousand" unicode="&#x2030;" horiz-adv-x="2413" 
d="M570 1475q148 0 221.5 -100t73.5 -252q0 -110 -33 -209q-17 -50 -39 -93t-53 -82q-58 -75 -135.5 -118t-161.5 -43q-86 0 -153 44q-35 23 -60.5 52.5t-46.5 71.5q-39 80 -39 176q0 142 58.5 268t156.5 203q50 39 103.5 60.5t107.5 21.5zM586 1405q-70 0 -124.5 -117.5
t-84 -273.5t-29.5 -244q0 -55 23 -92q24 -35 63 -35q44 0 74.5 39.5t65.5 145.5q102 285 102 467q0 54 -23.5 82t-66.5 28zM410 0l860 1458h111l-865 -1458h-106zM1344 893h4q89 0 154.5 -41.5t101 -122t35.5 -188.5q0 -148 -58 -274.5t-155 -200.5t-209 -74
q-84 0 -154 45.5t-109.5 123.5t-39.5 171q0 145 57.5 271.5t158.5 207.5q50 40 104 61t110 21zM1360 824h-4q-70 0 -124 -119t-84 -275.5t-30 -240.5q0 -58 25.5 -92.5t65.5 -34.5q67 0 121.5 125.5t87.5 290.5q16 80 24 137.5t8 93.5q0 52 -24.5 83.5t-65.5 31.5zM2077 893
h4q88 0 152.5 -41t99.5 -121t35 -190q0 -145 -56 -272.5t-153.5 -202t-208.5 -74.5q-84 0 -154 45.5t-109.5 123.5t-39.5 171q0 145 57.5 271.5t158.5 207.5q50 40 104 61t110 21zM2093 824h-4q-69 0 -102 -74q-57 -108 -96 -273t-39 -292q0 -55 25 -89t65 -34
q65 0 118.5 128.5t86.5 289.5q16 82 24 139.5t8 93.5q0 53 -22.5 82t-63.5 29z" />
    <glyph glyph-name="Scaron" unicode="&#x160;" horiz-adv-x="1417" 
d="M1344 918h-86q-21 127 -42 200t-72.5 137.5t-133.5 103t-166 38.5q-75 0 -138.5 -28t-102 -76.5t-38.5 -104.5q0 -110 81 -167q74 -53 268 -144q186 -86 283.5 -180t97.5 -254q0 -150 -83 -257t-215 -161t-280 -54q-277 0 -512 164l-98 -135h-94l110 586h103
q0 -67 6.5 -123t18.5 -96q22 -75 81 -137q134 -148 373 -148q95 0 177.5 30t130.5 81.5t48 113.5q0 100 -81 156t-279 154t-300 199t-102 266q0 115 69 212t189 155.5t254 58.5q120 0 241.5 -45.5t209.5 -122.5l106 139h86zM676 1946h131l209 -148l274 148h152l-389 -283
h-139z" />
    <glyph glyph-name="guilsinglleft" unicode="&#x2039;" horiz-adv-x="582" 
d="M287 520q139 -277 139 -409q0 -29 -10.5 -45.5t-26.5 -16.5q-27 0 -86 86l-91 130l-109 145l-44 54q-42 51 -42 56q0 10 28 29q242 173 459 361q106 86 131 86q17 0 17 -21q0 -53 -124 -195l-122.5 -136.5z" />
    <glyph glyph-name="OE" unicode="&#x152;" horiz-adv-x="1995" 
d="M1864 496l-160 -496h-815q-203 -29 -319 -29q-164 0 -277 90.5t-166 237t-53 307.5q0 112 31 235.5t87.5 236.5t135.5 212q72 87 137.5 133t150.5 65.5t208 19.5q92 0 196 -29h991l-69 -533h-86v22t2 28l2 36q0 128 -27 206t-86.5 114.5t-152.5 36.5h-115q-43 0 -63 -24
t-39 -95l-111 -446q36 0 66 3.5t50 9.5q37 9 72 40q78 66 123 213h78l-176 -701h-74q25 113 25 181q0 85 -37.5 120t-147.5 52l-127 -504l-16 -98q0 -46 66 -46h118q152 0 272 104t216 318zM1049 1237q16 63 16 86q0 42 -59.5 74.5t-140.5 32.5q-145 0 -226 -111
q-64 -86 -123.5 -249t-92.5 -340q-16 -88 -25 -175t-9 -162q0 -151 53 -241t144 -90q76 0 133 45t76 119z" />
    <glyph glyph-name="quoteleft" unicode="&#x2018;" horiz-adv-x="537" 
d="M615 1508l24 -70q-73 -34 -134.5 -82t-61.5 -102q7 -7 14 -12.5l22 -16.5q36 -25 63.5 -63.5t27.5 -92.5q0 -69 -47 -118.5t-117 -49.5q-77 0 -128.5 54.5t-51.5 138.5q0 68 25.5 129.5t74 114t123.5 96.5q35 21 75.5 39t90.5 35z" />
    <glyph glyph-name="quoteright" unicode="&#x2019;" horiz-adv-x="537" 
d="M258 901l-28 70q64 25 130 77t66 107q0 11 -20 17q-107 50 -107 164q0 72 47 122t117 50q48 0 89.5 -25t66 -71t24.5 -101q0 -88 -44.5 -166t-131.5 -141t-209 -103z" />
    <glyph glyph-name="quotedblleft" unicode="&#x201c;" horiz-adv-x="1000" 
d="M631 1508l29 -70q-201 -93 -201 -184q5 -5 9 -8q12 -10 29 -23q35 -24 64 -62t29 -92q0 -70 -49 -119t-119 -49q-73 0 -124.5 55.5t-51.5 137.5q0 88 45 168t131.5 142.5t208.5 103.5zM1045 1508l24 -70q-196 -97 -196 -184q7 -7 14 -12.5l22 -16.5q36 -25 63.5 -63.5
t27.5 -92.5q0 -69 -47 -118.5t-117 -49.5q-77 0 -128.5 54.5t-51.5 138.5q0 89 46 168q22 38 55.5 74t79 68.5t94.5 57.5t114 46z" />
    <glyph glyph-name="quotedblright" unicode="&#x201d;" horiz-adv-x="1000" 
d="M275 901l-29 70q31 13 66 33t68 46q67 52 67 105q0 9 -21 17q-110 51 -110 164q0 72 49 122t119 50q47 0 88 -26.5t64.5 -71.5t23.5 -99q0 -89 -46 -168.5t-131 -139.5q-44 -31 -94 -55.5t-114 -46.5zM688 901l-28 70q84 37 140 89.5t56 94.5q0 11 -20 17
q-107 50 -107 164q0 72 47 122t117 50q76 0 128 -57t52 -140q0 -88 -44.5 -166t-131.5 -141t-209 -103z" />
    <glyph glyph-name="endash" unicode="&#x2013;" horiz-adv-x="1045" 
d="M1020 467h-1028l53 209h1024z" />
    <glyph glyph-name="emdash" unicode="&#x2014;" horiz-adv-x="2065" 
d="M45 676h2048l-57 -242h-2053z" />
    <glyph glyph-name="trademark" unicode="&#x2122;" horiz-adv-x="1950" 
d="M1938 660v-66h-349v66q58 0 76.5 16t18.5 66v602l-258 -750h-25l-270 750v-598q0 -51 15 -68q8 -8 25.5 -13t45.5 -5v-66h-258v66h45q30 3 39.5 20.5t9.5 69.5v614q0 32 -7.5 42.5t-33.5 10.5h-37v62h279l209 -561l196 561h291v-62h-29q-38 0 -58 -9.5t-20 -43.5v-622
q0 -35 6 -50t26 -22q10 -3 29 -5.5zM615 1389v-660q0 -46 15.5 -57.5t82.5 -11.5h16v-66h-393v66q79 0 99 12t20 61v656h-45q-101 0 -136.5 -30t-35.5 -114h-70q0 14 -2 22l-2 11q0 22 6 69.5t6 69.5q0 23 -1 33.5t-7 28.5h742q-3 -28 -4 -41t-1 -41q0 -97 5 -152h-74
q0 34 -4.5 55t-14.5 43q-15 33 -49.5 45.5t-103.5 12.5q-10 0 -49 -12z" />
    <glyph glyph-name="scaron" unicode="&#x161;" horiz-adv-x="930" 
d="M266 1389l25 90h774l-24 -90q-60 0 -96.5 -4.5t-51.5 -12.5q-35 -18 -54 -54t-40 -126l-229 -913l-10 -34l-11 -44l-4 -37q0 -27 18 -44q19 -14 65 -20t138 -6l-24 -94h-775l20 94q48 0 85 4.5t58 11.5q38 10 58 44.5t46 136.5l229 913l25 111q0 44 -45 59t-177 15z
M783 2093q53 0 101 -26t75.5 -71.5t27.5 -98.5q0 -52 -27.5 -95t-75.5 -68.5t-101 -25.5q-89 0 -149 54t-60 135q0 51 27 97t76 72.5t106 26.5z" />
    <glyph glyph-name="guilsinglright" unicode="&#x203a;" horiz-adv-x="811" 
d="M643 1008l-192 -778q-17 -53 -17 -78q0 -29 21 -29q43 0 201 221l73 -49q-44 -73 -102 -147t-128 -125.5t-142 -51.5q-83 0 -136 56t-53 141q0 60 29 176l102 402q17 71 17 82q0 42 -34 54q-15 5 -36.5 8t-48.5 3l20 86q174 0 426 29z" />
    <glyph glyph-name="oe" unicode="&#x153;" horiz-adv-x="1417" 
d="M1344 918h-86q-21 127 -42 200t-72.5 137.5t-133.5 103t-166 38.5q-75 0 -138.5 -28t-102 -76.5t-38.5 -104.5q0 -110 81 -167q74 -53 268 -144q186 -86 283.5 -180t97.5 -254q0 -150 -83 -257t-215 -161t-280 -54q-277 0 -512 164l-98 -135h-94l110 586h103
q0 -67 6.5 -123t18.5 -96q22 -75 81 -137q134 -148 373 -148q95 0 177.5 30t130.5 81.5t48 113.5q0 100 -81 156t-279 154t-300 199t-102 266q0 115 69 212t189 155.5t254 58.5q120 0 241.5 -45.5t209.5 -122.5l106 139h86zM758 -29l-74 -131q77 0 116.5 -32.5t39.5 -90.5
q0 -81 -70.5 -136.5t-171.5 -55.5q-102 0 -200 24l20 82q25 -4 51.5 -6t63.5 -2q151 0 151 65q0 33 -29.5 47t-117.5 23l127 213h94z" />
    <glyph glyph-name="Ydieresis" unicode="&#x178;" horiz-adv-x="1278" 
d="M987 889q111 -86 111 -209q0 -74 -41.5 -141.5t-116.5 -112.5t-158 -66q-41 -10 -91.5 -15t-116.5 -5l-80 2l-80 2q-164 0 -164 -73q0 -25 12.5 -35t51.5 -15l125 -4h73q206 0 359 -55.5t153 -223.5q0 -141 -147.5 -216t-425.5 -75q-175 0 -297 28.5t-185 82.5t-63 131
q0 73 46.5 110.5t170.5 66.5q-90 56 -90 143q0 157 254 201q-79 43 -115.5 99t-36.5 138q0 99 59 175.5t168 118.5t249 42q160 0 294 -49q161 127 259 127q66 0 116.5 -44.5t50.5 -102.5q0 -50 -34.5 -84.5t-83.5 -34.5q-46 0 -76.5 27.5t-30.5 70.5q0 35 21 62l3 1l1 3
q-7 4 -13 4q-42 0 -131 -74zM660 893q-61 0 -117.5 -42t-92.5 -113t-36 -148q0 -74 40.5 -117t110.5 -43q149 0 209 185q33 92 33 143q0 59 -39 94t-108 41zM447 8q-324 0 -324 -135q0 -62 81.5 -98.5t217.5 -36.5q348 0 348 143q0 127 -307 127h-16zM1139 1577
q-39 -131 -130 -213t-222 -82q-107 0 -170.5 56t-63.5 153q0 35 17 86h90q-4 -21 -4 -41q0 -94 155 -94q171 0 234 135h94z" />
    <glyph glyph-name="nonbreakingspace" unicode="&#xa0;" horiz-adv-x="1090" 
 />
    <glyph glyph-name="exclamdown" unicode="&#xa1;" horiz-adv-x="697" 
d="M471 1028l99 -24q-70 -271 -70 -484q0 -10 2 -51t2 -71q0 -28 2 -72t2 -60q0 -141 -52.5 -218t-148.5 -77q-73 0 -124.5 54t-51.5 127q0 78 45 176q99 182 173.5 358t121.5 342zM598 1508q46 0 86.5 -24.5t65 -65.5t24.5 -87q0 -74 -53 -127t-127 -53q-70 0 -123 53
t-53 123q0 72 53.5 126.5t126.5 54.5z" />
    <glyph glyph-name="dieresis" unicode="&#xa8;" horiz-adv-x="697" 
d="M750 1463q60 0 103.5 -43.5t43.5 -104.5t-42.5 -104t-104.5 -43t-105 43t-43 104t43.5 104.5t104.5 43.5zM332 1463q60 0 103.5 -43.5t43.5 -104.5t-42.5 -104t-104.5 -43q-61 0 -104 42.5t-43 104.5q0 61 42.5 104.5t104.5 43.5z" />
    <glyph glyph-name="copyright" unicode="&#xa9;" horiz-adv-x="1553" 
d="M815 1508q204 0 379 -103t277 -280t102 -383q0 -208 -101.5 -385.5t-278 -281.5t-382.5 -104q-153 0 -292.5 60t-245.5 166.5t-165 246.5t-59 294q0 205 103 382t281 282.5t382 105.5zM811 1372q-167 0 -309.5 -84.5t-225.5 -230t-83 -315.5q0 -88 20 -166t63 -153
q83 -145 225 -230.5t310 -85.5q169 0 311.5 85t227 231t84.5 319q0 170 -83 314.5t-226.5 230t-313.5 85.5zM1131 1090v-221h-82q-32 106 -80 155t-121 49q-97 0 -157 -81.5t-60 -217.5q0 -57 7 -102t24 -91q32 -84 89 -129.5t134 -45.5q132 0 209 123l65 -25
q-36 -86 -131 -139t-217 -53q-117 0 -208.5 52t-142 147t-50.5 218q0 119 54 216.5t151 151.5t217 54q150 0 299 -61z" />
    <glyph glyph-name="ordfeminine" unicode="&#xaa;" horiz-adv-x="860" 
d="M1012 1069l-51 -83q-45 -75 -84.5 -110.5t-93.5 -35.5q-103 0 -127 123q-111 -123 -234 -123q-86 0 -147.5 77t-61.5 185q0 112 46.5 209t123 155t162.5 58q135 0 188 -119l25 98h188l-118 -466q-9 -44 -9 -70q0 -29 17 -29q40 0 123 164zM606 1426q-57 0 -103.5 -71
t-71.5 -162.5t-25 -155.5q0 -46 22.5 -72.5t59.5 -26.5q63 0 110.5 64t73 153t25.5 144q0 58 -24.5 92.5t-66.5 34.5zM889 574h-827l37 151h827z" />
    <glyph glyph-name="guillemotleft" unicode="&#xab;" horiz-adv-x="1000" 
d="M287 520q139 -277 139 -409q0 -29 -10.5 -45.5t-26.5 -16.5q-27 0 -86 86l-91 130l-109 145l-44 54q-42 51 -42 56q0 10 28 29q242 173 459 361q106 86 131 86q17 0 17 -21q0 -53 -124 -195l-122.5 -136.5zM701 520q139 -281 139 -409q0 -62 -33 -62q-27 0 -86 86
l-94 132l-111 143l-28 31l-42 49q-14 20 -16 30q0 6 33 29l130.5 97.5l116.5 89.5l110 89l102 85q100 86 127 86q20 0 20 -21q0 -36 -69 -124t-151 -176z" />
    <glyph glyph-name="logicalnot" unicode="&#xac;" horiz-adv-x="1254" 
d="M983 0v443h-823v196h1020v-639h-197z" />
    <glyph glyph-name="minus" unicode="&#xad;" horiz-adv-x="697" 
d="M639 459h-610l61 242h607z" />
    <glyph glyph-name="registered" unicode="&#xae;" horiz-adv-x="1553" 
d="M815 1508q204 0 379 -103t277 -280t102 -383q0 -208 -101.5 -385.5t-278 -281.5t-382.5 -104q-153 0 -292.5 60t-245.5 166.5t-165 246.5t-59 294q0 205 103 382t281 282.5t382 105.5zM811 1372q-167 0 -309.5 -84.5t-225.5 -230t-83 -315.5q0 -88 20 -166t63 -153
q83 -145 225 -230.5t310 -85.5q169 0 311.5 85t227 231t84.5 319q0 170 -83 314.5t-226.5 230t-313.5 85.5zM459 1106v58h360q159 0 235.5 -50t76.5 -155q0 -157 -197 -213q54 -10 91 -58q20 -26 38.5 -57.5t38.5 -73.5q38 -81 59 -114t52 -33h12v-53h-156q-48 0 -74.5 30
t-72.5 142l-43 99q-15 37 -29.5 53.5t-41 24t-79.5 7.5v-225q0 -47 8.5 -62.5t36.5 -15.5h45v-53h-360v53h12q54 0 66 7t12 38v582q0 47 -8 58t-41 11h-41zM729 778l49 -4q168 0 168 168q0 78 -37.5 119t-105.5 41q-54 0 -63 -1.5t-11 -14.5v-308z" />
    <glyph glyph-name="macron" unicode="&#xaf;" horiz-adv-x="697" 
d="M803 1262h-549l33 143h549z" />
    <glyph glyph-name="degree" unicode="&#xb0;" horiz-adv-x="1045" 
d="M680 1508q101 0 186 -50.5t134 -137t49 -189.5q0 -101 -49 -187.5t-134.5 -136t-185.5 -49.5q-99 0 -185.5 49.5t-137 135.5t-50.5 188t50 189.5t135.5 137.5t187.5 50zM676 1336q-52 0 -98 -27.5t-74.5 -76.5t-28.5 -101q0 -83 59.5 -144t141.5 -61q84 0 144.5 61
t60.5 144q0 84 -59 144.5t-146 60.5z" />
    <glyph glyph-name="plusminus" unicode="&#xb1;" horiz-adv-x="1254" 
d="M1176 254v-254h-1016v254h1016zM541 877v418h254v-418h381v-254h-381v-258h-254v258h-381v254h381z" />
    <glyph glyph-name="twosuperior" unicode="&#xb2;" horiz-adv-x="742" 
d="M729 582h-680l21 86q71 77 143 127l184 126q52 36 94 73t77 78q67 79 67 169q0 62 -38.5 99t-100.5 37q-24 0 -77.5 -20.5t-53.5 -41.5l27 -13q28 -14 49.5 -35t21.5 -54q0 -45 -34.5 -78t-80.5 -33q-51 0 -89 38t-38 89q0 62 45.5 116.5t123 86t167.5 31.5
q87 0 158 -30.5t112.5 -84.5t41.5 -119q0 -86 -61.5 -162t-180.5 -137q-213 -106 -311 -168h258q73 0 108.5 29.5t79.5 126.5h74z" />
    <glyph glyph-name="threesuperior" unicode="&#xb3;" horiz-adv-x="742" 
d="M627 1032q172 -48 172 -188q0 -80 -48.5 -147t-133.5 -105.5t-187 -38.5q-82 0 -153.5 30.5t-114.5 81.5t-43 109q0 47 35 83t84 36q46 0 78 -31.5t32 -74.5q0 -35 -17.5 -57t-43.5 -36l-25 -14q0 -23 43.5 -40t71.5 -17q87 0 142 77t55 197q0 40 -20.5 65t-57.5 25
l-37 -4l-37 -4q-57 0 -57 41q0 20 12 32.5t33 12.5l32 -4l33 -4q70 0 113 53.5t43 139.5q0 64 -31.5 99.5t-87.5 35.5q-21 0 -61.5 -14t-40.5 -35l17 -15q18 -15 31 -33t13 -43q0 -46 -29.5 -76t-72.5 -30t-73 34t-30 85q0 85 82.5 140.5t212.5 55.5q82 0 143.5 -25.5
t96.5 -74.5t35 -109q0 -74 -57 -132t-152 -81z" />
    <glyph glyph-name="acute" unicode="&#xb4;" horiz-adv-x="697" 
d="M520 1168l-36 57l266 217q58 49 102 49q39 0 66.5 -28.5t27.5 -65.5q0 -39 -22 -63.5t-76 -43.5z" />
    <glyph glyph-name="mu" unicode="&#xb5;" horiz-adv-x="1278" 
d="M1200 987l-168 -680q-24 -87 -24 -110q0 -24 13.5 -43t31.5 -19q33 0 90 25l-20 -82l-275 -99q-18 -8 -41 -8q-90 0 -102 115q-94 -66 -148.5 -92.5t-105.5 -26.5q-69 0 -109.5 9t-64 35t-51.5 83l-9 -115q0 -34 8.5 -110t8.5 -119q0 -62 -62 -109t-147 -47
q-68 0 -114 24.5t-46 61.5q0 51 73 176q213 379 279 632l123 499h303l-155 -618q-29 -110 -29 -152q0 -86 74 -86q42 0 78 16t98 62l192 778h299z" />
    <glyph glyph-name="paragraph" unicode="&#xb6;" horiz-adv-x="1348" 
d="M1241 1389l-393 -1504h139l-24 -94h-762l25 94h159l213 820q-35 -4 -57 -6t-41 -2q-307 0 -307 282q0 70 21 139t60 130t95 108q91 77 202 100t265 23h569l-24 -90h-140zM1082 1389h-136l-393 -1504h131zM778 1389q-133 0 -184 -193l-57 -217q-17 -63 -17 -102
q0 -94 99 -94z" />
    <glyph glyph-name="periodcentered" unicode="&#xb7;" horiz-adv-x="606" 
d="M303 672q77 0 131 -56t54 -132q0 -51 -24.5 -93.5t-68 -67t-92.5 -24.5q-76 0 -132 54t-56 131t55.5 132.5t132.5 55.5z" />
    <glyph glyph-name="periodcentered" unicode="&#x2219;" horiz-adv-x="606" 
d="M303 672q77 0 131 -56t54 -132q0 -51 -24.5 -93.5t-68 -67t-92.5 -24.5q-76 0 -132 54t-56 131t55.5 132.5t132.5 55.5z" />
    <glyph glyph-name="cedilla" unicode="&#xb8;" horiz-adv-x="697" 
d="M271 0l-74 -131q77 0 116.5 -32.5t39.5 -90.5q0 -80 -70.5 -136.5t-171.5 -56.5q-105 0 -201 25l20 82q25 -4 51.5 -6t63.5 -2q152 0 152 65q0 34 -31 47.5t-117 22.5l127 213h95z" />
    <glyph glyph-name="onesuperior" unicode="&#xb9;" horiz-adv-x="742" 
d="M754 1463l-176 -709l-8 -33l-5 -33q0 -20 26 -29q25 -7 106 -7l-17 -70h-479l16 70q33 0 52.5 1.5t39 6.5t31.5 24t29 78l119 475l4 41q0 24 -22 33q-11 4 -31.5 6t-57.5 2h-20l16 74l21 -2l24 -2h16h14h12q44 0 68 5q43 6 78 22q17 7 34.5 18.5t39.5 28.5h70z" />
    <glyph glyph-name="ordmasculine" unicode="&#xba;" horiz-adv-x="742" 
d="M545 1524q94 0 166.5 -37.5t110.5 -107t38 -158.5q0 -101 -50.5 -189t-139 -140t-191.5 -52q-129 0 -211.5 86t-82.5 221q0 104 48 191t130.5 136.5t181.5 49.5zM574 1458q-50 0 -95 -58.5t-74 -157.5q-14 -51 -21 -99.5t-7 -105.5q0 -58 26 -95t68 -37q66 0 110.5 87
t65.5 195t21 165q0 51 -23.5 78.5t-70.5 27.5zM819 574h-832l42 151h827z" />
    <glyph glyph-name="guillemotright" unicode="&#xbb;" horiz-adv-x="1000" 
d="M312 520l-68 148q-30 71 -51 138.5t-21 123.5q0 66 33 66q30 0 86 -86q131 -194 274 -361q17 -17 17 -24q0 -9 -29 -33l-287 -213l-69 -60l-96 -80l-41 -32l-43 -30q-41 -26 -58 -28q-17 0 -17 21q0 52 128 195q124 138 242 255zM725 520l-62 139q-31 72 -56 148
q-21 68 -21 123q0 66 37 66q23 0 86 -86q107 -167 274 -361l17 -24q0 -6 -33 -33l-88 -64l-112 -83l-87 -66l-102 -89q-56 -48 -121 -98q-60 -43 -80 -43q-16 0 -16 21q0 51 124 193l121 134z" />
    <glyph glyph-name="onequarter" unicode="&#xbc;" horiz-adv-x="1831" 
d="M754 1458l-176 -704q-17 -43 -17 -66q0 -21 26 -28.5t110 -7.5l-17 -70h-483l16 70q33 0 52.5 1.5t38.5 5.5q21 6 34 26t27 77l119 475l8 41q0 24 -22 33q-24 8 -93 8h-20l16 74l37 -4q169 0 270 69h74zM488 0l864 1458h111l-865 -1458h-110zM1356 217h-356l20 86
l615 574h98l-144 -574h160l-20 -86h-160q-25 -67 -25 -106q0 -26 29 -33.5t94 -7.5l-16 -70h-487l16 70q71 0 103 12t44 39q3 6 10.5 29.5t18.5 66.5zM1377 303l81 320l-352 -320h271z" />
    <glyph glyph-name="onehalf" unicode="&#xbd;" horiz-adv-x="1831" 
d="M754 1458l-176 -704l-8 -33l-5 -33q0 -20 26 -29q25 -7 106 -7l-17 -70h-479l16 70q33 0 52.5 1.5t39 6.5t31.5 24t29 78l119 475l4 41q0 24 -22 33q-11 4 -31.5 6t-57.5 2h-20l16 74l33 -4q173 0 274 69h70zM492 0l856 1458h115l-865 -1458h-106zM1667 0h-684l25 86
q58 66 226.5 183t251.5 201t83 190q0 61 -37 98t-98 37q-72 0 -115 -41q-6 -6 -12 -15q-1 -2 -4 -6l18 -9l23 -7q20 -7 36.5 -34.5t16.5 -51.5q0 -46 -33.5 -78.5t-81.5 -32.5q-51 0 -87 38t-36 94q0 59 45 112t122.5 85t164.5 32q132 0 224 -68t92 -166q0 -82 -64 -160.5
t-182 -138.5q-181 -89 -311 -168h258q74 0 110.5 29.5t77.5 126.5h78z" />
    <glyph glyph-name="threequarters" unicode="&#xbe;" horiz-adv-x="1831" 
d="M627 1032q172 -48 172 -188q0 -80 -48.5 -147t-133.5 -105.5t-187 -38.5q-82 0 -153.5 30.5t-114.5 81.5t-43 109q0 47 35 83t84 36q46 0 78 -31.5t32 -74.5q0 -35 -17.5 -57t-43.5 -36l-25 -14q0 -23 43.5 -40t71.5 -17q87 0 142 77t55 197q0 40 -20.5 65t-57.5 25
l-37 -4l-37 -4q-57 0 -57 41q0 20 12 32.5t33 12.5l32 -4l33 -4q70 0 113 53.5t43 139.5q0 64 -31.5 99.5t-87.5 35.5q-21 0 -61.5 -14t-40.5 -35l17 -15q18 -15 31 -33t13 -43q0 -46 -29.5 -76t-72.5 -30t-73 34t-30 85q0 85 82.5 140.5t212.5 55.5q82 0 143.5 -25.5
t96.5 -74.5t35 -109q0 -74 -57 -132t-152 -81zM492 0l860 1458h111l-865 -1458h-106zM1360 217h-360l20 86l619 574h94l-144 -574h160l-20 -86h-160q-10 -41 -15 -65.5t-5 -40.5q0 -27 28.5 -34t93.5 -7l-20 -70h-487l20 70q71 0 103 12t44 39q3 6 10.5 29.5t18.5 66.5z
M1381 303l77 320l-352 -320h275z" />
    <glyph glyph-name="questiondown" unicode="&#xbf;" horiz-adv-x="1000" 
d="M705 1508q48 0 88 -24.5t64 -65t24 -87.5q0 -73 -51 -126.5t-125 -53.5q-72 0 -124 53t-52 123q0 74 51 127.5t125 53.5zM369 955q100 106 250 106q71 0 130.5 -29t93.5 -82t34 -114q0 -83 -45.5 -147t-108.5 -108t-158 -97q-130 -75 -188 -113.5t-80 -69.5t-22 -71
q0 -67 61 -111.5t156 -44.5q109 0 179 42.5t110 118.5t63 187l94 -20q-8 -86 -20.5 -130t-44.5 -96q-125 -205 -439 -205q-130 0 -232.5 42t-160.5 118t-58 168q0 96 65.5 183t172.5 137l134 50q72 27 159 68q39 18 74.5 38t64.5 42q56 42 56 80q0 25 -25 45.5t-57 20.5
q-30 0 -60.5 -14t-91.5 -56z" />
    <glyph glyph-name="Agrave" unicode="&#xc0;" horiz-adv-x="1532" 
d="M910 475h-471l-41 -73q-40 -70 -57 -115.5t-17 -89.5q0 -66 44 -82q24 -8 61 -14.5t79 -6.5l-24 -94h-578l24 94q43 0 75 7.5t61 22.5q50 26 86 89l762 1299h163l177 -1262q10 -69 33 -104q23 -31 60 -42q17 -4 44.5 -7t58.5 -3l-20 -94h-688l20 94l64 3q27 0 55 8
t44.5 27t16.5 53l-2 27l-2 34zM889 590l-61 582l-328 -582h389zM1008 1635l-336 122q-98 36 -98 107q0 20 6 36t20 31q26 27 64 27q44 0 102 -49l275 -217z" />
    <glyph glyph-name="Aacute" unicode="&#xc1;" horiz-adv-x="1532" 
d="M910 475h-471l-41 -73q-40 -70 -57 -115.5t-17 -89.5q0 -66 44 -82q24 -8 61 -14.5t79 -6.5l-24 -94h-578l24 94q43 0 75 7.5t61 22.5q50 26 86 89l762 1299h163l177 -1262q10 -69 33 -104q23 -31 60 -42q17 -4 44.5 -7t58.5 -3l-20 -94h-688l20 94l64 3q27 0 55 8
t44.5 27t16.5 53l-2 27l-2 34zM889 590l-61 582l-328 -582h389zM963 1635l-37 57l266 217q58 49 103 49q39 0 66.5 -29t27.5 -65q0 -38 -22.5 -63t-76.5 -44z" />
    <glyph glyph-name="Acircumflex" unicode="&#xc2;" horiz-adv-x="1532" 
d="M910 475h-471l-41 -73q-40 -70 -57 -115.5t-17 -89.5q0 -66 44 -82q24 -8 61 -14.5t79 -6.5l-24 -94h-578l24 94q43 0 75 7.5t61 22.5q50 26 86 89l762 1299h163l177 -1262q10 -69 33 -104q23 -31 60 -42q17 -4 44.5 -7t58.5 -3l-20 -94h-688l20 94l64 3q27 0 55 8
t44.5 27t16.5 53l-2 27l-2 34zM889 590l-61 582l-328 -582h389zM1430 1663h-131l-209 139l-275 -139h-151l385 283h143z" />
    <glyph glyph-name="Atilde" unicode="&#xc3;" horiz-adv-x="1532" 
d="M910 475h-471l-41 -73q-40 -70 -57 -115.5t-17 -89.5q0 -66 44 -82q24 -8 61 -14.5t79 -6.5l-24 -94h-578l24 94q43 0 75 7.5t61 22.5q50 26 86 89l762 1299h163l177 -1262q10 -69 33 -104q23 -31 60 -42q17 -4 44.5 -7t58.5 -3l-20 -94h-688l20 94l64 3q27 0 55 8
t44.5 27t16.5 53l-2 27l-2 34zM889 590l-61 582l-328 -582h389zM1454 1929q-54 -274 -245 -274q-56 0 -91 21q-29 19 -58 41l-52 41q-79 61 -111 61q-38 0 -61 -30q-20 -29 -37 -105h-86q0 58 20 108.5t54 90.5q63 75 159 75q68 0 107 -26q39 -24 109.5 -81t103.5 -57
q74 0 94 135h94z" />
    <glyph glyph-name="Adieresis" unicode="&#xc4;" horiz-adv-x="1532" 
d="M910 475h-471l-41 -73q-40 -70 -57 -115.5t-17 -89.5q0 -66 44 -82q24 -8 61 -14.5t79 -6.5l-24 -94h-578l24 94q43 0 75 7.5t61 22.5q50 26 86 89l762 1299h163l177 -1262q10 -69 33 -104q23 -31 60 -42q17 -4 44.5 -7t58.5 -3l-20 -94h-688l20 94l64 3q27 0 55 8
t44.5 27t16.5 53l-2 27l-2 34zM889 590l-61 582l-328 -582h389zM1286 1929q62 0 105 -43t43 -104t-43 -104t-105 -43q-61 0 -104 42.5t-43 104.5q0 61 42.5 104t104.5 43zM869 1929q61 0 104 -42.5t43 -104.5q0 -61 -42.5 -104t-104.5 -43t-105 43t-43 104t43 104t105 43z
" />
    <glyph glyph-name="Aring" unicode="&#xc5;" horiz-adv-x="1532" 
d="M910 475h-471l-41 -73q-40 -70 -57 -115.5t-17 -89.5q0 -66 44 -82q24 -8 61 -14.5t79 -6.5l-24 -94h-578l24 94q43 0 75 7.5t61 22.5q50 26 86 89l762 1299h163l177 -1262q10 -69 33 -104q23 -31 60 -42q17 -4 44.5 -7t58.5 -3l-20 -94h-688l20 94l64 3q27 0 55 8
t44.5 27t16.5 53l-2 27l-2 34zM889 590l-61 582l-328 -582h389zM1069 1946q52 0 97.5 -25.5t72.5 -71.5t27 -100q0 -52 -27 -96.5t-72 -73.5q-46 -26 -98 -26q-82 0 -139 58t-57 138q0 84 56.5 140.5t139.5 56.5zM1069 1848q-39 0 -68.5 -30.5t-29.5 -68.5q0 -39 29.5 -68.5
t68.5 -29.5q40 0 69.5 29t29.5 69q0 42 -29.5 70.5t-69.5 28.5z" />
    <glyph glyph-name="AE" unicode="&#xc6;" horiz-adv-x="1831" 
d="M1569 0h-975l21 94q122 0 177 51t85 175l74 303h-431l-245 -348q-45 -62 -45 -111q0 -30 28.5 -45t110.5 -25l-25 -94h-418l25 94q97 24 172 123l852 1172h-139l24 90h1037l-95 -537h-65q8 55 12 102.5t4 78.5q0 266 -147 266h-107q-52 0 -73 -24t-41 -111l-111 -435
q77 0 125.5 30.5t75.5 81.5q11 20 25.5 57.5t27.5 76.5h74l-164 -659h-78q25 127 25 200q0 70 -28.5 98.5t-102.5 28.5l-127 -503q-13 -46 -13 -66q0 -70 107 -70h29q95 0 175 65.5t137 162.5q28 49 51 96t42 98l66 -24zM979 733l115 463q12 42 12 62q0 43 -10 63.5
t-39 38.5l-455 -627h377z" />
    <glyph glyph-name="Ccedilla" unicode="&#xc7;" horiz-adv-x="1577" 
d="M873 -25l-49 -86q76 0 115.5 -33.5t39.5 -93.5q0 -76 -69 -132t-168 -56q-115 0 -205 20l20 82q63 -16 119 -16q71 0 109.5 20t38.5 54t-32 49t-116 24l102 168q-75 0 -142 14.5t-135.5 43t-123 64t-102.5 83.5q-93 92 -145 217t-52 267q0 82 18 162.5t53 157.5
q72 156 198 273.5t291 184t341 66.5q269 0 434 -144l103 115h78l-78 -590h-94q0 57 -13 115q-9 42 -31 103q-34 97 -91 164t-134.5 102.5t-169.5 35.5q-143 0 -250.5 -78.5t-172.5 -204.5t-95.5 -267.5t-30.5 -276.5q0 -110 29 -200t87 -154q27 -30 62 -53.5t75 -40.5
q80 -31 182 -31q354 0 553 409l102 -45q-53 -103 -117.5 -190t-144.5 -154q-39 -32 -82.5 -58t-94.5 -46.5t-102.5 -32t-109.5 -11.5z" />
    <glyph glyph-name="Egrave" unicode="&#xc8;" horiz-adv-x="1532" 
d="M1258 0h-1287l21 94q43 0 66.5 2.5t53.5 7t54 22.5t39 55q12 28 33 110l229 913l11 39l10 40l4 32q0 44 -44.5 59t-176.5 15l24 90h1270l-70 -537h-90l5 55l3 40q0 109 -32 187t-102.5 121.5t-176.5 43.5h-160q-38 0 -61.5 -10t-38 -36.5t-27.5 -76.5l-110 -447
q52 0 94.5 7t90.5 22q76 24 132.5 81.5t87.5 156.5h99l-177 -701h-98q25 120 25 164q0 62 -26.5 99.5t-86.5 56.5q-37 13 -70 19q-45 9 -96 9l-123 -499l-16 -82q0 -58 86 -58h176q122 0 226 57t179 153.5t119 215.5l86 -24zM1143 1635l-332 122q-102 38 -102 107q0 20 6 36
t20 31q26 27 64 27q42 0 106 -49l275 -217z" />
    <glyph glyph-name="Eacute" unicode="&#xc9;" horiz-adv-x="1532" 
d="M1258 0h-1287l21 94q43 0 66.5 2.5t53.5 7t54 22.5t39 55q12 28 33 110l229 913l11 39l10 40l4 32q0 44 -44.5 59t-176.5 15l24 90h1270l-70 -537h-90l5 55l3 40q0 109 -32 187t-102.5 121.5t-176.5 43.5h-160q-38 0 -61.5 -10t-38 -36.5t-27.5 -76.5l-110 -447
q52 0 94.5 7t90.5 22q76 24 132.5 81.5t87.5 156.5h99l-177 -701h-98q25 120 25 164q0 62 -26.5 99.5t-86.5 56.5q-37 13 -70 19q-45 9 -96 9l-123 -499l-16 -82q0 -58 86 -58h176q122 0 226 57t179 153.5t119 215.5l86 -24zM983 1635l-37 57l267 217q58 49 102 49
q39 0 66.5 -28.5t27.5 -65.5q0 -40 -22.5 -63.5t-75.5 -43.5z" />
    <glyph glyph-name="Ecircumflex" unicode="&#xca;" horiz-adv-x="1532" 
d="M1258 0h-1287l21 94q43 0 66.5 2.5t53.5 7t54 22.5t39 55q12 28 33 110l229 913l11 39l10 40l4 32q0 44 -44.5 59t-176.5 15l24 90h1270l-70 -537h-90l5 55l3 40q0 109 -32 187t-102.5 121.5t-176.5 43.5h-160q-38 0 -61.5 -10t-38 -36.5t-27.5 -76.5l-110 -447
q52 0 94.5 7t90.5 22q76 24 132.5 81.5t87.5 156.5h99l-177 -701h-98q25 120 25 164q0 62 -26.5 99.5t-86.5 56.5q-37 13 -70 19q-45 9 -96 9l-123 -499l-16 -82q0 -58 86 -58h176q122 0 226 57t179 153.5t119 215.5l86 -24zM1430 1663h-131l-209 139l-275 -139h-151
l385 283h143z" />
    <glyph glyph-name="Edieresis" unicode="&#xcb;" horiz-adv-x="1532" 
d="M1258 0h-1287l21 94q43 0 66.5 2.5t53.5 7t54 22.5t39 55q12 28 33 110l229 913l11 39l10 40l4 32q0 44 -44.5 59t-176.5 15l24 90h1270l-70 -537h-90l5 55l3 40q0 109 -32 187t-102.5 121.5t-176.5 43.5h-160q-38 0 -61.5 -10t-38 -36.5t-27.5 -76.5l-110 -447
q52 0 94.5 7t90.5 22q76 24 132.5 81.5t87.5 156.5h99l-177 -701h-98q25 120 25 164q0 62 -26.5 99.5t-86.5 56.5q-37 13 -70 19q-45 9 -96 9l-123 -499l-16 -82q0 -58 86 -58h176q122 0 226 57t179 153.5t119 215.5l86 -24zM1286 1929q62 0 105 -43t43 -104t-43 -104
t-105 -43q-61 0 -104 42.5t-43 104.5q0 61 42.5 104t104.5 43zM869 1929q61 0 104 -42.5t43 -104.5q0 -61 -42.5 -104t-104.5 -43t-105 43t-43 104t43 104t105 43z" />
    <glyph glyph-name="Igrave" unicode="&#xcc;" horiz-adv-x="930" 
d="M266 1389l25 90h774l-24 -90q-60 0 -96.5 -4.5t-51.5 -12.5q-35 -18 -54 -54t-40 -126l-229 -913l-10 -34l-11 -44l-4 -37q0 -27 18 -44q19 -14 65 -20t138 -6l-24 -94h-775l20 94q48 0 85 4.5t58 11.5q38 10 58 44.5t46 136.5l229 913l11 40l10 41l4 30q0 44 -45 59
t-177 15zM701 1635l-332 122q-103 38 -103 107q0 38 26 67q27 27 65 27q42 0 106 -49l275 -217z" />
    <glyph glyph-name="Iacute" unicode="&#xcd;" horiz-adv-x="930" 
d="M266 1389l25 90h774l-24 -90q-60 0 -96.5 -4.5t-51.5 -12.5q-35 -18 -54 -54t-40 -126l-229 -913l-10 -34l-11 -44l-4 -37q0 -27 18 -44q19 -14 65 -20t138 -6l-24 -94h-775l20 94q48 0 85 4.5t58 11.5q38 10 58 44.5t46 136.5l229 913l11 40l10 41l4 30q0 44 -45 59
t-177 15zM733 1635l-36 57l266 217q58 49 98 49t69 -28.5t29 -65.5q0 -39 -22 -63.5t-76 -43.5z" />
    <glyph glyph-name="Icircumflex" unicode="&#xce;" horiz-adv-x="930" 
d="M266 1389l25 90h774l-24 -90q-60 0 -96.5 -4.5t-51.5 -12.5q-35 -18 -54 -54t-40 -126l-229 -913l-10 -34l-11 -44l-4 -37q0 -27 18 -44q19 -14 65 -20t138 -6l-24 -94h-775l20 94q48 0 85 4.5t58 11.5q38 10 58 44.5t46 136.5l229 913l11 40l10 41l4 30q0 44 -45 59
t-177 15zM1127 1663h-136l-204 139l-279 -139h-151l389 283h139z" />
    <glyph glyph-name="Idieresis" unicode="&#xcf;" horiz-adv-x="930" 
d="M266 1389l25 90h774l-24 -90q-60 0 -96.5 -4.5t-51.5 -12.5q-35 -18 -54 -54t-40 -126l-229 -913l-10 -34l-11 -44l-4 -37q0 -27 18 -44q19 -14 65 -20t138 -6l-24 -94h-775l20 94q48 0 85 4.5t58 11.5q38 10 58 44.5t46 136.5l229 913l11 40l10 41l4 30q0 44 -45 59
t-177 15zM979 1929q62 0 105 -43t43 -104t-43 -104t-105 -43q-61 0 -104 42.5t-43 104.5q0 61 42.5 104t104.5 43zM561 1929q62 0 105 -43t43 -104t-43 -104t-105 -43q-61 0 -104 42.5t-43 104.5q0 61 42.5 104t104.5 43z" />
    <glyph glyph-name="Eth" unicode="&#xd0;" horiz-adv-x="1716" 
d="M377 885h-225l24 94h226l57 225q20 85 20 111q0 30 -17 44.5t-65 22.5q-23 3 -57 5t-78 2l21 90h799q152 0 271 -40.5t201.5 -119t124.5 -191.5t42 -255q0 -126 -32 -249.5t-93 -233.5q-30 -55 -63.5 -99.5t-76.5 -87.5q-80 -80 -174 -125q-66 -32 -120 -47.5t-134 -23.5
q-28 0 -93.5 -3.5t-94.5 -3.5h-881l24 94q48 0 85 4.5t58 11.5q38 10 58 44.5t46 136.5zM709 885l-160 -651q-16 -52 -16 -86q0 -54 127 -54h135q125 0 243.5 62.5t178.5 167.5q55 96 97 221.5t64.5 253.5t22.5 238q0 200 -113.5 276t-320.5 76q-55 0 -85.5 -9t-45.5 -31.5
t-29 -70.5l-74 -299h426l-20 -94h-430z" />
    <glyph glyph-name="Ntilde" unicode="&#xd1;" horiz-adv-x="1762" 
d="M1311 -45h-94l-594 1254l-209 -840q-21 -77 -21 -127q0 -71 48.5 -109.5t144.5 -38.5l-25 -94h-586l21 94q99 0 158 37.5t88.5 99t56.5 162.5l201 799q12 48 12 90q0 59 -47 81q-26 13 -68 19.5t-106 6.5l25 90h487l508 -1053l180 729q21 92 21 127q0 42 -14.5 64
t-51.5 33q-16 4 -44.5 7t-61.5 3h-25l21 90h561l-25 -90q-36 0 -66.5 -4t-72.5 -18.5t-68.5 -56.5t-46.5 -122zM1569 1929q-54 -274 -246 -274q-58 0 -95 23t-112.5 82t-107.5 59q-40 0 -61 -30q-19 -30 -33 -105h-86q0 58 19 107.5t53 90.5q64 76 157 76q66 0 105 -24
t112 -82t107 -58q74 0 94 135h94z" />
    <glyph glyph-name="Ograve" unicode="&#xd2;" horiz-adv-x="1716" 
d="M1053 1508q143 0 270.5 -52.5t222 -148.5t147 -222.5t52.5 -273.5q0 -171 -72.5 -325t-200.5 -268.5t-298 -180.5t-359 -66q-197 0 -361.5 88.5t-259.5 243.5t-95 340q0 179 73 337.5t203.5 276.5t305.5 184.5t372 66.5zM1024 1409q-154 0 -267.5 -85.5t-185 -224.5
t-104.5 -296.5t-33 -298.5q0 -129 45.5 -226t129.5 -146.5t202 -49.5q78 0 154 26q39 13 72 30t65 41q62 47 102 108q61 92 112 220q46 120 73.5 254.5t27.5 254.5q0 91 -28 163.5t-78.5 123t-123 78.5t-163.5 28zM1102 1635l-332 122q-102 38 -102 107q0 20 6 36t20 31
q26 27 64 27q43 0 107 -49l274 -217z" />
    <glyph glyph-name="Oacute" unicode="&#xd3;" horiz-adv-x="1716" 
d="M1053 1508q143 0 270.5 -52.5t222 -148.5t147 -222.5t52.5 -273.5q0 -171 -72.5 -325t-200.5 -268.5t-298 -180.5t-359 -66q-197 0 -361.5 88.5t-259.5 243.5t-95 340q0 179 73 337.5t203.5 276.5t305.5 184.5t372 66.5zM1024 1409q-154 0 -267.5 -85.5t-185 -224.5
t-104.5 -296.5t-33 -298.5q0 -129 45.5 -226t129.5 -146.5t202 -49.5q78 0 154 26q39 13 72 30t65 41q62 47 102 108q61 92 112 220q46 120 73.5 254.5t27.5 254.5q0 91 -28 163.5t-78.5 123t-123 78.5t-163.5 28zM1139 1635l-37 57l266 217q58 49 99 49q39 0 68.5 -28.5
t29.5 -65.5q0 -38 -22.5 -62.5t-75.5 -44.5z" />
    <glyph glyph-name="Ocircumflex" unicode="&#xd4;" horiz-adv-x="1716" 
d="M1053 1508q143 0 270.5 -52.5t222 -148.5t147 -222.5t52.5 -273.5q0 -171 -72.5 -325t-200.5 -268.5t-298 -180.5t-359 -66q-197 0 -361.5 88.5t-259.5 243.5t-95 340q0 179 73 337.5t203.5 276.5t305.5 184.5t372 66.5zM1024 1409q-154 0 -267.5 -85.5t-185 -224.5
t-104.5 -296.5t-33 -298.5q0 -129 45.5 -226t129.5 -146.5t202 -49.5q78 0 154 26q39 13 72 30t65 41q62 47 102 108q61 92 112 220q46 120 73.5 254.5t27.5 254.5q0 91 -28 163.5t-78.5 123t-123 78.5t-163.5 28zM1524 1663h-131l-209 139l-274 -139h-152l385 283h143z" />
    <glyph glyph-name="Otilde" unicode="&#xd5;" horiz-adv-x="1716" 
d="M1053 1508q143 0 270.5 -52.5t222 -148.5t147 -222.5t52.5 -273.5q0 -171 -72.5 -325t-200.5 -268.5t-298 -180.5t-359 -66q-197 0 -361.5 88.5t-259.5 243.5t-95 340q0 179 73 337.5t203.5 276.5t305.5 184.5t372 66.5zM1024 1409q-154 0 -267.5 -85.5t-185 -224.5
t-104.5 -296.5t-33 -298.5q0 -129 45.5 -226t129.5 -146.5t202 -49.5q78 0 154 26q39 13 72 30t65 41q62 47 102 108q61 92 112 220q46 120 73.5 254.5t27.5 254.5q0 91 -28 163.5t-78.5 123t-123 78.5t-163.5 28zM1549 1929q-56 -274 -246 -274q-57 0 -93.5 24t-111 82
t-107.5 58q-38 0 -61 -30q-20 -29 -37 -105h-86q0 60 19 108.5t54 89.5q64 76 161 76q66 0 104 -25q22 -13 46.5 -31.5t63.5 -50.5q72 -57 105 -57q76 0 94 135h95z" />
    <glyph glyph-name="Odieresis" unicode="&#xd6;" horiz-adv-x="1716" 
d="M1053 1508q143 0 270.5 -52.5t222 -148.5t147 -222.5t52.5 -273.5q0 -171 -72.5 -325t-200.5 -268.5t-298 -180.5t-359 -66q-197 0 -361.5 88.5t-259.5 243.5t-95 340q0 179 73 337.5t203.5 276.5t305.5 184.5t372 66.5zM1024 1409q-154 0 -267.5 -85.5t-185 -224.5
t-104.5 -296.5t-33 -298.5q0 -129 45.5 -226t129.5 -146.5t202 -49.5q78 0 154 26q39 13 72 30t65 41q62 47 102 108q61 92 112 220q46 120 73.5 254.5t27.5 254.5q0 91 -28 163.5t-78.5 123t-123 78.5t-163.5 28zM1381 1929q61 0 104 -42.5t43 -104.5q0 -61 -42.5 -104
t-104.5 -43t-105 43t-43 104t43 104t105 43zM963 1929q61 0 104 -42.5t43 -104.5q0 -61 -42.5 -104t-104.5 -43t-105 43t-43 104t43 104t105 43z" />
    <glyph glyph-name="multiply" unicode="&#xd7;" horiz-adv-x="1348" 
d="M537 750l-299 295l176 176l299 -295l299 295l176 -176l-299 -295l299 -299l-176 -176l-299 299l-299 -299l-176 176z" />
    <glyph glyph-name="Oslash" unicode="&#xd8;" horiz-adv-x="1716" 
d="M299 172q-200 202 -200 471q0 228 127 428t341 318.5t457 118.5q137 0 250.5 -38t224.5 -122l148 147h115l-205 -205q51 -51 93.5 -135t68.5 -179.5t26 -172.5q0 -219 -125.5 -411t-339.5 -306.5t-456 -114.5q-265 0 -463 148l-140 -140h-114zM459 324l909 897
q-41 84 -134.5 136t-209.5 52q-156 0 -269.5 -85.5t-184.5 -225t-103.5 -298t-32.5 -300.5q0 -113 25 -176zM1401 1139l-909 -893q46 -81 130.5 -126.5t192.5 -45.5q118 0 223.5 55.5t167 150.5t110.5 220q23 59 41.5 124t32.5 134q27 134 27 254q0 57 -16 127z" />
    <glyph glyph-name="Ugrave" unicode="&#xd9;" horiz-adv-x="1716" 
d="M299 1389l25 90h717l-25 -90q-16 0 -20 -4q-36 0 -60 -3.5t-45 -11.5q-31 -12 -50 -47t-38 -114l-172 -684q-29 -118 -29 -177q0 -120 71.5 -187t203.5 -67q112 0 192 43q40 22 74.5 55.5t62.5 79.5q56 92 93 236l164 651l12 99q0 46 -13.5 72.5t-46 38.5t-100.5 20
l21 90h503l-24 -90q-100 -15 -156 -46.5t-78 -113.5l-184 -729q-36 -146 -85.5 -245.5t-118.5 -161.5t-161.5 -92t-216.5 -30q-163 0 -279.5 52t-178.5 150t-62 233q0 111 37 250l143 573q17 57 17 86v4q0 70 -156 70h-37zM1102 1635l-332 122q-102 38 -102 107q0 20 6 36
t20 31q26 27 64 27q43 0 107 -49l274 -217z" />
    <glyph glyph-name="Uacute" unicode="&#xda;" horiz-adv-x="1716" 
d="M299 1389l25 90h717l-25 -90q-16 0 -20 -4q-36 0 -60 -3.5t-45 -11.5q-31 -12 -50 -47t-38 -114l-172 -684q-29 -118 -29 -177q0 -120 71.5 -187t203.5 -67q112 0 192 43q40 22 74.5 55.5t62.5 79.5q56 92 93 236l164 651l12 99q0 46 -13.5 72.5t-46 38.5t-100.5 20
l21 90h503l-24 -90q-100 -15 -156 -46.5t-78 -113.5l-184 -729q-36 -146 -85.5 -245.5t-118.5 -161.5t-161.5 -92t-216.5 -30q-163 0 -279.5 52t-178.5 150t-62 233q0 111 37 250l143 573q17 57 17 86v4q0 70 -156 70h-37zM1147 1635l-37 57l267 217q58 49 98 49t69 -28.5
t29 -65.5q0 -40 -22.5 -63.5t-75.5 -43.5z" />
    <glyph glyph-name="Ucircumflex" unicode="&#xdb;" horiz-adv-x="1716" 
d="M299 1389l25 90h717l-25 -90q-16 0 -20 -4q-36 0 -60 -3.5t-45 -11.5q-31 -12 -50 -47t-38 -114l-172 -684q-29 -118 -29 -177q0 -120 71.5 -187t203.5 -67q112 0 192 43q40 22 74.5 55.5t62.5 79.5q56 92 93 236l164 651l12 99q0 46 -13.5 72.5t-46 38.5t-100.5 20
l21 90h503l-24 -90q-100 -15 -156 -46.5t-78 -113.5l-184 -729q-36 -146 -85.5 -245.5t-118.5 -161.5t-161.5 -92t-216.5 -30q-163 0 -279.5 52t-178.5 150t-62 233q0 111 37 250l143 573q17 57 17 86v4q0 70 -156 70h-37zM1524 1663h-131l-209 139l-274 -139h-152l385 283
h143z" />
    <glyph glyph-name="Udieresis" unicode="&#xdc;" horiz-adv-x="1716" 
d="M299 1389l25 90h717l-25 -90q-16 0 -20 -4q-36 0 -60 -3.5t-45 -11.5q-31 -12 -50 -47t-38 -114l-172 -684q-29 -118 -29 -177q0 -120 71.5 -187t203.5 -67q112 0 192 43q40 22 74.5 55.5t62.5 79.5q56 92 93 236l164 651l12 99q0 46 -13.5 72.5t-46 38.5t-100.5 20
l21 90h503l-24 -90q-100 -15 -156 -46.5t-78 -113.5l-184 -729q-36 -146 -85.5 -245.5t-118.5 -161.5t-161.5 -92t-216.5 -30q-163 0 -279.5 52t-178.5 150t-62 233q0 111 37 250l143 573q17 57 17 86v4q0 70 -156 70h-37zM1381 1929q61 0 104 -42.5t43 -104.5
q0 -61 -42.5 -104t-104.5 -43t-105 43t-43 104t43 104t105 43zM963 1929q61 0 104 -42.5t43 -104.5q0 -61 -42.5 -104t-104.5 -43t-105 43t-43 104t43 104t105 43z" />
    <glyph glyph-name="Yacute" unicode="&#xdd;" horiz-adv-x="1463" 
d="M959 611l-86 -332q-21 -95 -21 -115q0 -29 18.5 -43.5t68 -20.5t147.5 -6l-25 -94h-790l20 94q48 0 88.5 3.5t63.5 9.5q42 10 68 48q22 35 50 136l78 320l-274 598q-30 71 -50.5 102.5t-55.5 50.5t-103 27l20 90h680l-20 -90q-54 0 -88.5 -4.5t-57 -12.5t-22.5 -45
q0 -11 4 -24.5t16 -40.5l217 -553l332 455q58 79 58 131q0 30 -17 49t-45 28q-9 3 -25 5.5l-36 5.5l-58 6l25 90h582l-21 -90q-102 -15 -168.5 -57t-138.5 -136zM934 1635l-37 57l267 217q58 49 102 49q39 0 66.5 -28.5t27.5 -65.5q0 -40 -22.5 -63.5t-75.5 -43.5z" />
    <glyph glyph-name="Thorn" unicode="&#xde;" horiz-adv-x="1532" 
d="M791 94l-25 -94h-791l25 94q48 0 84.5 4.5t58.5 11.5q36 10 59 48q19 35 44 133l229 913q0 17 12 55q1 4 7 24.5t6 31.5q0 42 -46 57q-25 8 -73 12.5t-119 4.5l25 90h790l-24 -90l-45 -4q-37 0 -63.5 -4t-43.5 -11q-31 -12 -51 -48q-17 -34 -43 -130l-4 -16h82
q47 0 110.5 -2.5t66.5 -2.5q35 0 60 -4.5t60 -14.5q24 -6 52 -16t52 -22q67 -31 122 -87t85 -127q15 -36 23 -70.5t8 -71.5q0 -107 -62 -208t-167 -157q-74 -40 -152 -54.5t-217 -14.5h-336l-14 -53l-14 -59q-5 -28 -5 -48q0 -29 18.5 -43.5t68 -20.5t147.5 -6zM619 426h114
q100 0 157 9t101 32q92 39 155 155.5t63 246.5q0 62 -25.5 110.5t-72.5 75.5t-107 27h-90q-77 0 -110.5 -25t-53.5 -94z" />
    <glyph glyph-name="germandbls" unicode="&#xdf;" 
d="M815 910q106 -36 181 -95t117 -145t42 -195q0 -138 -62 -253t-171.5 -183t-237.5 -68q-112 0 -185 55t-73 138q0 71 40.5 121.5t94.5 50.5q44 0 73.5 -35t29.5 -84q0 -30 -26.5 -69.5t-26.5 -61.5q0 -14 9 -26q10 -9 23 -11q40 0 76.5 62t61.5 152t40 179.5t15 131.5
q0 104 -21 166t-67 90q-25 15 -55 22.5t-70 7.5l16 50l61 7q22 0 38.5 3.5t36.5 10.5q29 11 53 36q40 49 73 148t33 171q0 59 -26.5 91t-75.5 32q-74 0 -121 -70t-88 -241l-340 -1360l-308 -86l365 1446q22 92 67 167.5t111.5 131.5t143.5 83q41 14 80.5 21t85.5 7
q98 0 172.5 -36.5t116.5 -102.5t42 -148q0 -98 -45.5 -165t-122 -102t-176.5 -44z" />
    <glyph glyph-name="agrave" unicode="&#xe0;" horiz-adv-x="1393" 
d="M1389 320q-53 -107 -116 -187t-127.5 -121t-125.5 -41q-90 0 -143.5 45t-81.5 144q-159 -171 -365 -189q-109 0 -194 57.5t-134 154t-49 202.5q0 162 75 305.5t199.5 228.5t266.5 85q216 0 320 -176l41 151h278l-176 -713q-12 -36 -12 -81q0 -62 37 -62q36 0 85.5 58
t122.5 184zM684 865q-104 0 -179.5 -98.5t-116.5 -238.5q-20 -71 -30 -129t-10 -112q0 -81 41.5 -126.5t114.5 -45.5q109 0 190 91.5t121.5 220.5t40.5 233q0 90 -48 147.5t-124 57.5zM963 1168l-332 122q-102 36 -102 107q0 20 6 36t20 31q26 27 64 27q42 0 106 -49
l275 -217z" />
    <glyph glyph-name="aacute" unicode="&#xe1;" horiz-adv-x="1393" 
d="M1389 320q-53 -107 -116 -187t-127.5 -121t-125.5 -41q-90 0 -143.5 45t-81.5 144q-159 -171 -365 -189q-109 0 -194 57.5t-134 154t-49 202.5q0 162 75 305.5t199.5 228.5t266.5 85q216 0 320 -176l41 151h278l-176 -713q-12 -36 -12 -81q0 -62 37 -62q36 0 85.5 58
t122.5 184zM684 865q-104 0 -179.5 -98.5t-116.5 -238.5q-20 -71 -30 -129t-10 -112q0 -81 41.5 -126.5t114.5 -45.5q109 0 190 91.5t121.5 220.5t40.5 233q0 90 -48 147.5t-124 57.5zM729 1168l-37 57l267 217q58 49 102 49q39 0 66.5 -28.5t27.5 -65.5q0 -39 -22 -63.5
t-76 -43.5z" />
    <glyph glyph-name="acircumflex" unicode="&#xe2;" horiz-adv-x="1393" 
d="M1389 320q-53 -107 -116 -187t-127.5 -121t-125.5 -41q-90 0 -143.5 45t-81.5 144q-159 -171 -365 -189q-109 0 -194 57.5t-134 154t-49 202.5q0 162 75 305.5t199.5 228.5t266.5 85q216 0 320 -176l41 151h278l-176 -713q-12 -36 -12 -81q0 -62 37 -62q36 0 85.5 58
t122.5 184zM684 865q-104 0 -179.5 -98.5t-116.5 -238.5q-20 -71 -30 -129t-10 -112q0 -81 41.5 -126.5t114.5 -45.5q109 0 190 91.5t121.5 220.5t40.5 233q0 90 -48 147.5t-124 57.5zM1237 1196h-131l-209 144l-274 -144h-152l385 283h144z" />
    <glyph glyph-name="atilde" unicode="&#xe3;" horiz-adv-x="1393" 
d="M1389 320q-53 -107 -116 -187t-127.5 -121t-125.5 -41q-90 0 -143.5 45t-81.5 144q-159 -171 -365 -189q-109 0 -194 57.5t-134 154t-49 202.5q0 162 75 305.5t199.5 228.5t266.5 85q216 0 320 -176l41 151h278l-176 -713q-12 -36 -12 -81q0 -62 37 -62q36 0 85.5 58
t122.5 184zM684 865q-104 0 -179.5 -98.5t-116.5 -238.5q-20 -71 -30 -129t-10 -112q0 -81 41.5 -126.5t114.5 -45.5q109 0 190 91.5t121.5 220.5t40.5 233q0 90 -48 147.5t-124 57.5zM1262 1463q-56 -275 -246 -275q-57 0 -87.5 19.5t-111 82t-112.5 62.5
q-38 0 -60.5 -30.5t-38.5 -104.5h-86q5 63 23 111.5t51 87.5q65 75 160 75q68 0 107 -26q22 -14 48 -33.5t61 -48.5q70 -56 103 -56q76 0 95 136h94z" />
    <glyph glyph-name="adieresis" unicode="&#xe4;" horiz-adv-x="1393" 
d="M1389 320q-53 -107 -116 -187t-127.5 -121t-125.5 -41q-90 0 -143.5 45t-81.5 144q-159 -171 -365 -189q-109 0 -194 57.5t-134 154t-49 202.5q0 162 75 305.5t199.5 228.5t266.5 85q216 0 320 -176l41 151h278l-176 -713q-12 -36 -12 -81q0 -62 37 -62q36 0 85.5 58
t122.5 184zM684 865q-104 0 -179.5 -98.5t-116.5 -238.5q-20 -71 -30 -129t-10 -112q0 -81 41.5 -126.5t114.5 -45.5q109 0 190 91.5t121.5 220.5t40.5 233q0 90 -48 147.5t-124 57.5zM1094 1463q60 0 103.5 -43.5t43.5 -104.5t-42.5 -104t-104.5 -43t-105 43t-43 104
t43.5 104.5t104.5 43.5zM676 1463q61 0 104.5 -44.5t43.5 -103.5q0 -61 -43 -104t-105 -43q-61 0 -104 42.5t-43 104.5q0 61 42.5 104.5t104.5 43.5z" />
    <glyph glyph-name="aring" unicode="&#xe5;" horiz-adv-x="1393" 
d="M1389 320q-53 -107 -116 -187t-127.5 -121t-125.5 -41q-90 0 -143.5 45t-81.5 144q-159 -171 -365 -189q-109 0 -194 57.5t-134 154t-49 202.5q0 162 75 305.5t199.5 228.5t266.5 85q216 0 320 -176l41 151h278l-176 -713q-12 -36 -12 -81q0 -62 37 -62q36 0 85.5 58
t122.5 184zM684 865q-104 0 -179.5 -98.5t-116.5 -238.5q-20 -71 -30 -129t-10 -112q0 -81 41.5 -126.5t114.5 -45.5q109 0 190 91.5t121.5 220.5t40.5 233q0 90 -48 147.5t-124 57.5zM877 1479q51 0 96.5 -25.5t72.5 -71.5t27 -100q0 -52 -26 -96.5t-72.5 -72t-97.5 -27.5
q-83 0 -140 58t-57 138q0 83 56.5 140t140.5 57zM877 1381q-40 0 -69.5 -29.5t-29.5 -69.5q0 -39 29.5 -68.5t69.5 -29.5t69 29t29 69q0 43 -29.5 71t-68.5 28z" />
    <glyph glyph-name="ae" unicode="&#xe6;" horiz-adv-x="1692" 
d="M1594 234q-97 -127 -218 -195t-249 -68q-136 0 -229.5 82t-139.5 218q-68 -135 -158.5 -217.5t-214.5 -82.5q-92 0 -162 45.5t-107.5 130t-37.5 197.5q0 281 193 492q149 168 307 168q171 0 241 -160l33 135h225l-24 -90q121 115 315 115q79 0 143 -31.5t100 -86.5
t36 -120q0 -97 -65 -167q-31 -34 -71 -61.5t-91 -49.5q-95 -41 -222 -70l-186 -41l-8 -106q0 -89 50 -139t138 -50q85 0 161 47t179 162zM1041 484l21 7l15 5q316 83 316 307q0 50 -21.5 76t-56.5 26q-36 0 -78.5 -30t-81.5 -80q-33 -48 -56.5 -110t-57.5 -201zM656 844
q-63 0 -112 -63.5t-87 -166.5q-34 -100 -53 -198t-19 -158q0 -71 29.5 -113t81.5 -42q59 0 109.5 66.5t85.5 161.5q16 46 31 97t24 98q20 100 20 150q0 77 -30 122.5t-80 45.5z" />
    <glyph glyph-name="ccedilla" unicode="&#xe7;" horiz-adv-x="1114" 
d="M578 -29l-58 -98q79 0 119.5 -33.5t40.5 -93.5q0 -78 -72 -135.5t-169 -57.5q-70 0 -201 25l20 82l115 -8q152 0 152 69q0 31 -29.5 45t-118.5 25l111 180q-65 12 -122.5 34.5t-109.5 56.5q-99 66 -153 164.5t-54 216.5q0 149 88 277q43 64 102 116t133 91q149 77 316 77
q118 0 214 -35.5t150 -98.5t54 -141q0 -69 -45.5 -118.5t-109.5 -49.5q-63 0 -109.5 45t-46.5 107q0 56 43.5 93.5t107.5 37.5h37l4 -4l9 12l-13 13q-24 21 -85 33t-111 12q-99 0 -179.5 -36.5t-137.5 -103.5t-89.5 -161.5t-32.5 -206.5q0 -97 31 -170t88 -113.5t131 -40.5
q85 0 165.5 53.5t199.5 192.5l69 -58q-105 -148 -213 -219q-55 -36 -115.5 -56t-125.5 -20z" />
    <glyph glyph-name="egrave" unicode="&#xe8;" horiz-adv-x="1069" 
d="M987 234q-77 -89 -159 -149q-76 -56 -161 -86q-44 -14 -85 -21t-90 -7q-128 0 -228.5 55t-157.5 154t-57 222q0 114 54 224t146.5 194.5t215.5 134t248 49.5q94 0 169 -30.5t117 -84.5t42 -119q0 -293 -680 -385q-17 -49 -17 -90q0 -94 58 -147.5t159 -53.5
q179 0 365 205zM373 484q152 39 223.5 64t135 85t63.5 162q0 46 -29.5 78t-73.5 32q-88 0 -172 -90q-47 -51 -75.5 -116t-71.5 -215zM811 1168l-336 122q-98 36 -98 107q0 38 26 67q27 27 64 27q44 0 103 -49l274 -217z" />
    <glyph glyph-name="eacute" unicode="&#xe9;" horiz-adv-x="1069" 
d="M987 234q-77 -89 -159 -149q-76 -56 -161 -86q-44 -14 -85 -21t-90 -7q-128 0 -228.5 55t-157.5 154t-57 222q0 114 54 224t146.5 194.5t215.5 134t248 49.5q94 0 169 -30.5t117 -84.5t42 -119q0 -293 -680 -385q-17 -49 -17 -90q0 -94 58 -147.5t159 -53.5
q179 0 365 205zM373 484q152 39 223.5 64t135 85t63.5 162q0 46 -29.5 78t-73.5 32q-88 0 -172 -90q-47 -51 -75.5 -116t-71.5 -215zM623 1168l-37 57l266 217q58 49 99 49q39 0 68.5 -28.5t29.5 -65.5q0 -38 -22.5 -62.5t-75.5 -44.5z" />
    <glyph glyph-name="ecircumflex" unicode="&#xea;" horiz-adv-x="1069" 
d="M987 234q-77 -89 -159 -149q-76 -56 -161 -86q-44 -14 -85 -21t-90 -7q-128 0 -228.5 55t-157.5 154t-57 222q0 114 54 224t146.5 194.5t215.5 134t248 49.5q94 0 169 -30.5t117 -84.5t42 -119q0 -293 -680 -385q-17 -49 -17 -90q0 -94 58 -147.5t159 -53.5
q179 0 365 205zM373 484q152 39 223.5 64t135 85t63.5 162q0 46 -29.5 78t-73.5 32q-88 0 -172 -90q-47 -51 -75.5 -116t-71.5 -215zM1086 1196h-135l-205 144l-279 -144h-151l389 283h139z" />
    <glyph glyph-name="edieresis" unicode="&#xeb;" horiz-adv-x="1069" 
d="M987 234q-77 -89 -159 -149q-76 -56 -161 -86q-44 -14 -85 -21t-90 -7q-128 0 -228.5 55t-157.5 154t-57 222q0 114 54 224t146.5 194.5t215.5 134t248 49.5q94 0 169 -30.5t117 -84.5t42 -119q0 -293 -680 -385q-17 -49 -17 -90q0 -94 58 -147.5t159 -53.5
q179 0 365 205zM373 484q152 39 223.5 64t135 85t63.5 162q0 46 -29.5 78t-73.5 32q-88 0 -172 -90q-47 -51 -75.5 -116t-71.5 -215zM938 1463q61 0 104.5 -44.5t43.5 -103.5q0 -61 -43 -104t-105 -43q-61 0 -104 42.5t-43 104.5q0 61 42.5 104.5t104.5 43.5zM520 1463
q61 0 104.5 -44.5t43.5 -103.5q0 -61 -43 -104t-105 -43q-60 0 -103.5 42.5t-43.5 104.5q0 61 43.5 104.5t103.5 43.5z" />
    <glyph glyph-name="igrave" unicode="&#xec;" horiz-adv-x="811" 
d="M660 1008l-193 -778q-16 -48 -16 -78q0 -29 20 -29q43 0 201 221l74 -49q-39 -64 -82 -120t-92 -106q-95 -98 -199 -98q-83 0 -135.5 56t-52.5 141q0 64 28 176l103 402q16 70 16 82q0 42 -33 54q-35 11 -86 11l21 86q173 0 426 29zM676 1168l-332 122q-102 38 -102 107
q0 20 6 36t20 31q26 27 64 27q43 0 107 -49l274 -217z" />
    <glyph glyph-name="iacute" unicode="&#xed;" horiz-adv-x="811" 
d="M660 1008l-193 -778q-16 -48 -16 -78q0 -29 20 -29q43 0 201 221l74 -49q-39 -64 -82 -120t-92 -106q-95 -98 -199 -98q-83 0 -135.5 56t-52.5 141q0 64 28 176l103 402q16 70 16 82q0 42 -33 54q-35 11 -86 11l21 86q173 0 426 29zM475 1168l-36 57l266 217q58 49 98 49
t69 -28.5t29 -65.5q0 -39 -22 -63.5t-76 -43.5z" />
    <glyph glyph-name="icircumflex" unicode="&#xee;" horiz-adv-x="811" 
d="M660 1008l-193 -778q-16 -48 -16 -78q0 -29 20 -29q43 0 201 221l74 -49q-39 -64 -82 -120t-92 -106q-95 -98 -199 -98q-83 0 -135.5 56t-52.5 141q0 64 28 176l103 402q16 70 16 82q0 42 -33 54q-35 11 -86 11l21 86q173 0 426 29zM955 1196h-136l-204 144l-279 -144
h-151l389 283h139z" />
    <glyph glyph-name="idieresis" unicode="&#xef;" horiz-adv-x="811" 
d="M660 1008l-193 -778q-16 -48 -16 -78q0 -29 20 -29q43 0 201 221l74 -49q-39 -64 -82 -120t-92 -106q-95 -98 -199 -98q-83 0 -135.5 56t-52.5 141q0 64 28 176l103 402q16 70 16 82q0 42 -33 54q-35 11 -86 11l21 86q173 0 426 29zM807 1463q61 0 104.5 -44.5
t43.5 -103.5q0 -61 -43 -104t-105 -43q-61 0 -104 42.5t-43 104.5q0 61 42.5 104.5t104.5 43.5zM389 1463q61 0 104.5 -44.5t43.5 -103.5q0 -61 -43 -104t-105 -43q-61 0 -104 42.5t-43 104.5q0 61 42.5 104.5t104.5 43.5z" />
    <glyph glyph-name="eth" unicode="&#xf0;" 
d="M758 991q-30 120 -156 246l-196 -90l-49 107l159 69q-80 62 -151 90l57 115q133 -40 266 -127l263 107l45 -111l-209 -86q63 -56 99 -97.5t66.5 -96.5t71.5 -150q52 -114 81 -217q26 -96 26 -185q0 -164 -78.5 -300.5t-216.5 -215t-307 -78.5q-69 0 -130 15t-117 47
q-110 62 -171.5 170.5t-61.5 243.5q0 154 74.5 281.5t205.5 201.5t290 74q84 0 139 -13zM668 897q-108 0 -178 -101t-101.5 -240t-31.5 -253q0 -102 44.5 -161.5t123.5 -59.5q106 0 175.5 117t100.5 270q15 77 23 142.5t8 121.5q0 49 -20 86t-57.5 57.5t-86.5 20.5z" />
    <glyph glyph-name="ntilde" unicode="&#xf1;" horiz-adv-x="1417" 
d="M328 0h-283l189 750q8 51 8 69q0 74 -115 74h-28l20 86q18 0 65.5 2t55.5 2q35 0 68 3q49 6 75 8l150 14l-49 -258q61 76 135 132t164 90q44 16 88.5 24t95.5 8q94 0 170.5 -31.5t119 -89t42.5 -129.5q0 -63 -45 -189l-95 -274q-41 -106 -41 -143q0 -33 25 -33
q53 0 193 225l73 -49q-93 -175 -176 -247.5t-192 -72.5q-97 0 -149 51t-52 146q0 60 41 176l119 336q20 57 20 115q0 40 -28 65t-74 25q-93 0 -197 -72.5t-185.5 -189t-113.5 -246.5zM1278 1463q-54 -275 -246 -275q-57 0 -88 20t-60 42l-52 41q-79 61 -111 61
q-38 0 -61 -30q-20 -29 -37 -105h-86q0 58 20 108.5t54 90.5q63 75 159 75q67 0 104.5 -24t109.5 -82t106 -58q75 0 94 136h94z" />
    <glyph glyph-name="ograve" unicode="&#xf2;" 
d="M619 1004q151 0 267.5 -57.5t180.5 -164t64 -241.5q0 -152 -81.5 -284t-219 -209t-297.5 -77q-140 0 -249.5 60.5t-172 169.5t-62.5 246q0 154 74.5 281.5t205.5 201.5t290 74zM668 897q-108 0 -178 -101t-101.5 -240t-31.5 -253q0 -102 44.5 -161.5t123.5 -59.5
q108 0 177 117t99 269q15 78 23 143t8 122q0 49 -20 86t-57.5 57.5t-86.5 20.5zM869 1168l-336 122q-99 36 -99 107q0 38 26 67q27 27 65 27q44 0 102 -49l274 -217z" />
    <glyph glyph-name="oacute" unicode="&#xf3;" 
d="M619 1004q151 0 267.5 -57.5t180.5 -164t64 -241.5q0 -152 -81.5 -284t-219 -209t-297.5 -77q-140 0 -249.5 60.5t-172 169.5t-62.5 246q0 154 74.5 281.5t205.5 201.5t290 74zM668 897q-108 0 -178 -101t-101.5 -240t-31.5 -253q0 -102 44.5 -161.5t123.5 -59.5
q108 0 177 117t99 269q15 78 23 143t8 122q0 49 -20 86t-57.5 57.5t-86.5 20.5zM598 1168l-37 57l267 217q58 49 102 49q39 0 66.5 -28.5t27.5 -65.5q0 -40 -22.5 -63.5t-75.5 -43.5z" />
    <glyph glyph-name="ocircumflex" unicode="&#xf4;" 
d="M619 1004q151 0 267.5 -57.5t180.5 -164t64 -241.5q0 -152 -81.5 -284t-219 -209t-297.5 -77q-140 0 -249.5 60.5t-172 169.5t-62.5 246q0 154 74.5 281.5t205.5 201.5t290 74zM668 897q-108 0 -178 -101t-101.5 -240t-31.5 -253q0 -102 44.5 -161.5t123.5 -59.5
q108 0 177 117t99 269q15 78 23 143t8 122q0 49 -20 86t-57.5 57.5t-86.5 20.5zM1143 1196h-135l-205 144l-278 -144h-152l389 283h139z" />
    <glyph glyph-name="otilde" unicode="&#xf5;" 
d="M619 1004q151 0 267.5 -57.5t180.5 -164t64 -241.5q0 -152 -81.5 -284t-219 -209t-297.5 -77q-140 0 -249.5 60.5t-172 169.5t-62.5 246q0 154 74.5 281.5t205.5 201.5t290 74zM668 897q-108 0 -178 -101t-101.5 -240t-31.5 -253q0 -102 44.5 -161.5t123.5 -59.5
q108 0 177 117t99 269q15 78 23 143t8 122q0 49 -20 86t-57.5 57.5t-86.5 20.5zM1168 1463q-56 -275 -246 -275q-58 0 -96 23q-38 25 -112.5 83t-107.5 58q-39 0 -59.5 -29.5t-34.5 -105.5h-86q0 60 19 108.5t54 89.5q64 76 157 76q65 0 104 -24t112 -82t107 -58
q76 0 94 136h95z" />
    <glyph glyph-name="odieresis" unicode="&#xf6;" 
d="M619 1004q151 0 267.5 -57.5t180.5 -164t64 -241.5q0 -152 -81.5 -284t-219 -209t-297.5 -77q-140 0 -249.5 60.5t-172 169.5t-62.5 246q0 154 74.5 281.5t205.5 201.5t290 74zM668 897q-108 0 -178 -101t-101.5 -240t-31.5 -253q0 -102 44.5 -161.5t123.5 -59.5
q108 0 177 117t99 269q15 78 23 143t8 122q0 49 -20 86t-57.5 57.5t-86.5 20.5zM996 1463q58 0 102.5 -43.5t44.5 -104.5t-43 -104t-104 -43q-62 0 -105 43t-43 104t43.5 104.5t104.5 43.5zM578 1463q60 0 103.5 -43.5t43.5 -104.5t-42.5 -104t-104.5 -43t-105 43t-43 104
t43.5 104.5t104.5 43.5z" />
    <glyph glyph-name="divide" unicode="&#xf7;" horiz-adv-x="1348" 
d="M713 463q67 0 113.5 -45.5t46.5 -110.5q0 -64 -48.5 -111.5t-111.5 -47.5q-64 0 -110 47.5t-46 111.5t45.5 110t110.5 46zM1233 877v-254h-1036v254h1036zM713 1352q68 0 114 -47t46 -113q0 -63 -46 -109t-114 -46q-65 0 -110.5 45.5t-45.5 109.5q0 66 45 113t111 47z
" />
    <glyph glyph-name="oslash" unicode="&#xf8;" 
d="M193 103q-40 17 -74 81t-52 142t-18 129q0 144 76.5 271.5t208 202.5t281.5 75q179 0 315 -82l90 102h98l-135 -147q67 -58 107.5 -153t40.5 -191q0 -111 -46.5 -212.5t-131 -181t-192.5 -124t-228 -44.5q-165 0 -283 82l-90 -98h-98zM353 283l466 520q-37 94 -151 94
q-115 0 -186 -104t-100 -248t-29 -262zM832 701l-463 -512q57 -107 151 -107q109 0 176 109t97 249q20 91 27 135q12 71 12 126z" />
    <glyph glyph-name="ugrave" unicode="&#xf9;" horiz-adv-x="1417" 
d="M824 226q-74 -107 -173 -181t-208 -74q-69 0 -127 34t-90.5 89.5t-32.5 122.5q0 33 4 63.5t16 80.5l103 405q5 29 6.5 39t1.5 19q0 43 -21 56t-98 13h-16l20 86q20 0 72 2t60 2q36 0 80 4l76 7l159 14l-177 -709l-8 -65q0 -78 70 -78q53 0 128.5 63t146 166.5
t114.5 274.5l78 319h282l-188 -753l-6 -23l-8 -27l-2 -20q0 -33 24 -33q37 0 96 65t121 173l86 -62q-173 -328 -372 -328q-92 0 -157 62.5t-65 151.5q0 21 5 41zM983 1168l-336 122q-98 36 -98 107q0 38 26 67q27 27 64 27q44 0 103 -49l274 -217z" />
    <glyph glyph-name="uacute" unicode="&#xfa;" horiz-adv-x="1417" 
d="M824 226q-74 -107 -173 -181t-208 -74q-69 0 -127 34t-90.5 89.5t-32.5 122.5q0 33 4 63.5t16 80.5l103 405q5 29 6.5 39t1.5 19q0 43 -21 56t-98 13h-16l20 86q20 0 72 2t60 2q36 0 80 4l76 7l159 14l-177 -709l-8 -65q0 -78 70 -78q53 0 128.5 63t146 166.5
t114.5 274.5l78 319h282l-188 -753l-6 -23l-8 -27l-2 -20q0 -33 24 -33q37 0 96 65t121 173l86 -62q-173 -328 -372 -328q-92 0 -157 62.5t-65 151.5q0 21 5 41zM742 1168l-37 57l266 217q58 49 98 49q41 0 70 -28.5t29 -65.5q0 -38 -22.5 -63t-76.5 -44z" />
    <glyph glyph-name="ucircumflex" unicode="&#xfb;" horiz-adv-x="1417" 
d="M824 226q-74 -107 -173 -181t-208 -74q-69 0 -127 34t-90.5 89.5t-32.5 122.5q0 33 4 63.5t16 80.5l103 405q5 29 6.5 39t1.5 19q0 43 -21 56t-98 13h-16l20 86q20 0 72 2t60 2q36 0 80 4l76 7l159 14l-177 -709l-8 -65q0 -78 70 -78q53 0 128.5 63t146 166.5
t114.5 274.5l78 319h282l-188 -753l-6 -23l-8 -27l-2 -20q0 -33 24 -33q37 0 96 65t121 173l86 -62q-173 -328 -372 -328q-92 0 -157 62.5t-65 151.5q0 21 5 41zM1258 1196h-135l-205 144l-279 -144h-151l389 283h139z" />
    <glyph glyph-name="udieresis" unicode="&#xfc;" horiz-adv-x="1417" 
d="M824 226q-74 -107 -173 -181t-208 -74q-69 0 -127 34t-90.5 89.5t-32.5 122.5q0 33 4 63.5t16 80.5l103 405q5 29 6.5 39t1.5 19q0 43 -21 56t-98 13h-16l20 86q20 0 72 2t60 2q36 0 80 4l76 7l159 14l-177 -709l-8 -65q0 -78 70 -78q53 0 128.5 63t146 166.5
t114.5 274.5l78 319h282l-188 -753l-6 -23l-8 -27l-2 -20q0 -33 24 -33q37 0 96 65t121 173l86 -62q-173 -328 -372 -328q-92 0 -157 62.5t-65 151.5q0 21 5 41zM1110 1463q61 0 104.5 -44.5t43.5 -103.5q0 -61 -43 -104t-105 -43q-61 0 -104 42.5t-43 104.5
q0 61 42.5 104.5t104.5 43.5zM692 1463q61 0 104.5 -44.5t43.5 -103.5q0 -61 -43 -104t-105 -43q-61 0 -104 43t-43 104t43.5 104.5t103.5 43.5z" />
    <glyph glyph-name="yacute" unicode="&#xfd;" horiz-adv-x="1069" 
d="M688 189l83 113q45 60 84.5 120t69.5 122t30 99q0 29 -12 53q-8 16 -15 27.5t-20 30.5q-22 33 -32.5 53.5t-10.5 52.5q0 65 39 104.5t100 39.5q58 0 98.5 -43.5t40.5 -108.5q0 -95 -69.5 -235.5t-148.5 -257.5l-56 -83l-65 -93l-75 -105q-145 -201 -274 -328t-275 -127
q-80 0 -136.5 51.5t-56.5 124.5q0 69 36.5 110.5t95.5 41.5q52 0 85.5 -33.5t33.5 -85.5q0 -33 -23 -70q-7 -12 -18 -35q-1 -2 -4 -6q0 -6 12 -8q31 0 90 44q52 37 115 97q56 54 90 93l-229 696q-62 164 -115 164q-31 0 -62 -37q-29 -37 -73 -127l-62 54q62 138 131 222.5
t176 84.5q82 0 134 -55.5t104 -206.5zM766 1168l-37 57l267 217q58 49 102 49q39 0 66.5 -28.5t27.5 -65.5q0 -40 -22.5 -63.5t-75.5 -43.5z" />
    <glyph glyph-name="thorn" unicode="&#xfe;" horiz-adv-x="1348" 
d="M230 1393l20 86q91 0 205 7t246 22l-168 -660q155 156 372 156q105 0 191.5 -52.5t136 -143.5t49.5 -202q0 -166 -80 -313t-217.5 -234.5t-292.5 -87.5q-244 0 -335 169l-70 -275l-6 -29l-4 -24l-2 -21q0 -45 82 -45h26q15 -3 22 -4l46 -4l-21 -86h-606l20 86
q46 0 74.5 6.5t45.5 19.5q28 19 49 88l340 1357q16 69 16 98q0 86 -139 86zM811 865q-108 0 -195 -90t-136.5 -222.5t-49.5 -232.5q0 -105 49.5 -161t135.5 -56q70 0 134 44.5t117 125.5q24 37 44.5 83t35.5 97q29 102 29 211q0 94 -43.5 147.5t-120.5 53.5z" />
    <glyph glyph-name="ydieresis" unicode="&#xff;" horiz-adv-x="1069" 
d="M688 189l83 113q45 60 84.5 120t69.5 122t30 99q0 29 -12 53q-8 16 -15 27.5t-20 30.5q-22 33 -32.5 53.5t-10.5 52.5q0 65 39 104.5t100 39.5q58 0 98.5 -43.5t40.5 -108.5q0 -95 -69.5 -235.5t-148.5 -257.5l-56 -83l-65 -93l-75 -105q-145 -201 -274 -328t-275 -127
q-80 0 -136.5 51.5t-56.5 124.5q0 69 36.5 110.5t95.5 41.5q52 0 85.5 -33.5t33.5 -85.5q0 -33 -23 -70q-7 -12 -18 -35q-1 -2 -4 -6q0 -6 12 -8q31 0 90 44q52 37 115 97q56 54 90 93l-229 696q-62 164 -115 164q-31 0 -62 -37q-29 -37 -73 -127l-62 54q62 138 131 222.5
t176 84.5q82 0 134 -55.5t104 -206.5zM938 1463q61 0 104.5 -44.5t43.5 -103.5q0 -61 -43 -104t-105 -43q-61 0 -104 42.5t-43 104.5q0 61 42.5 104.5t104.5 43.5zM520 1463q61 0 104.5 -44.5t43.5 -103.5q0 -61 -43 -104t-105 -43q-60 0 -103.5 42.5t-43.5 104.5
q0 61 43.5 104.5t103.5 43.5z" />
    <glyph glyph-name="dotlessi" unicode="&#x131;" horiz-adv-x="811" 
d="M643 1008l-192 -778q-17 -53 -17 -78q0 -29 21 -29q43 0 201 221l73 -49q-44 -73 -102 -147t-128 -125.5t-142 -51.5q-83 0 -136 56t-53 141q0 60 29 176l102 402q17 71 17 82q0 42 -34 54q-15 5 -36.5 8t-48.5 3l20 86q174 0 426 29z" />
    <glyph glyph-name="Scedilla" unicode="&#x15e;" horiz-adv-x="1417" 
d="M1344 918h-86q-21 127 -42 200t-72.5 137.5t-133.5 103t-166 38.5q-75 0 -138.5 -28t-102 -76.5t-38.5 -104.5q0 -110 81 -167q74 -53 268 -144q186 -86 283.5 -180t97.5 -254q0 -150 -83 -257t-215 -161t-280 -54q-277 0 -512 164l-98 -135h-94l110 586h103
q0 -67 6.5 -123t18.5 -96q22 -75 81 -137q134 -148 373 -148q95 0 177.5 30t130.5 81.5t48 113.5q0 100 -81 156t-279 154t-300 199t-102 266q0 115 69 212t189 155.5t254 58.5q120 0 241.5 -45.5t209.5 -122.5l106 139h86zM758 -29l-74 -131q77 0 116.5 -32.5t39.5 -90.5
q0 -81 -70.5 -136.5t-171.5 -55.5q-102 0 -200 24l20 82q25 -4 51.5 -6t63.5 -2q151 0 151 65q0 33 -29.5 47t-117.5 23l127 213h94z" />
    <glyph glyph-name="scedilla" unicode="&#x15f;" horiz-adv-x="1000" 
d="M582 1004q153 0 258.5 -70.5t105.5 -171.5q0 -58 -37.5 -100.5t-89.5 -42.5q-48 0 -83 37t-35 90q0 35 20.5 63t48.5 31q20 0 21 8q0 14 -64.5 42t-136.5 28q-55 0 -102.5 -16.5t-73 -45t-25.5 -61.5q0 -65 47.5 -92t180.5 -80q128 -49 194 -110t66 -173q0 -102 -54 -186
t-152.5 -133.5t-215.5 -49.5q-112 0 -206 40.5t-151 109.5t-57 145q0 64 35 102t96 38q56 0 91.5 -35.5t35.5 -91.5q0 -41 -19 -63t-44.5 -34.5t-26.5 -17.5q0 -16 57 -45q62 -37 144 -37q106 0 174 47.5t68 120.5q0 32 -13.5 51t-58.5 41q-19 9 -57 24l-84 32
q-143 50 -209 119.5t-66 170.5q0 103 62.5 175t159 106.5t196.5 34.5zM504 -21l-74 -131q77 0 116.5 -32.5t39.5 -90.5q0 -81 -70.5 -136.5t-171.5 -55.5q-102 0 -200 24l20 82q25 -4 51.5 -6t63.5 -2q151 0 151 66q0 32 -29.5 46t-117.5 23l127 213h94z" />
    <glyph glyph-name="Gbreve" unicode="&#x11e;" horiz-adv-x="1692" 
d="M1385 0h-86l-41 176q-103 -97 -228.5 -151t-263.5 -54q-185 0 -345 93.5t-253.5 253t-93.5 346.5q0 226 125.5 419.5t339.5 309t457 115.5q145 0 253 -37t222 -127l90 135h82l-74 -578h-98q-15 141 -45 221t-95 146.5t-152.5 103.5t-182.5 37q-105 0 -190.5 -43
t-155.5 -132t-134 -230q-106 -248 -106 -451q0 -145 45 -249t132 -157t208 -53q135 0 229 64t123 174l20 69l15 62q6 30 6 62t-17.5 49.5t-39.5 22t-35 6.5t-30 2l-62 1l20 91h684l-24 -91q-67 0 -99 -10t-49.5 -39.5t-32.5 -89.5zM1467 1975q-39 -131 -130 -213t-223 -82
q-109 0 -171 55.5t-62 153.5q0 38 16 86h90l-4 -41q0 -95 156 -95q172 0 233 136h95z" />
    <glyph glyph-name="gbreve" unicode="&#x11f;" horiz-adv-x="1278" 
d="M987 889q111 -86 111 -209q0 -74 -41.5 -141.5t-116.5 -112.5t-158 -66q-41 -10 -91.5 -15t-116.5 -5l-80 2l-80 2q-164 0 -164 -73q0 -25 12.5 -35t51.5 -15l125 -4h73q206 0 359 -55.5t153 -223.5q0 -141 -147.5 -216t-425.5 -75q-175 0 -297 28.5t-185 82.5t-63 131
q0 73 46.5 110.5t170.5 66.5q-90 56 -90 143q0 157 254 201q-79 43 -115.5 99t-36.5 138q0 99 59 175.5t168 118.5t249 42q160 0 294 -49q161 127 259 127q66 0 116.5 -44.5t50.5 -102.5q0 -50 -34.5 -84.5t-83.5 -34.5q-46 0 -76.5 27.5t-30.5 70.5q0 35 21 62l3 1l1 3
q-7 4 -13 4q-42 0 -131 -74zM660 893q-61 0 -117.5 -42t-92.5 -113t-36 -148q0 -74 40.5 -117t110.5 -43q149 0 209 185q33 92 33 143q0 59 -39 94t-108 41zM447 8q-324 0 -324 -135q0 -62 81.5 -98.5t217.5 -36.5q348 0 348 143q0 127 -307 127h-16zM1139 1577
q-39 -131 -130 -213t-222 -82q-107 0 -170.5 56t-63.5 153q0 35 17 86h90q-4 -21 -4 -41q0 -94 155 -94q171 0 234 135h94z" />
    <glyph glyph-name="Idotaccent" unicode="&#x130;" horiz-adv-x="930" 
d="M266 1389l25 90h774l-24 -90q-60 0 -96.5 -4.5t-51.5 -12.5q-35 -18 -54 -54t-40 -126l-229 -913l-10 -34l-11 -44l-4 -37q0 -27 18 -44q19 -14 65 -20t138 -6l-24 -94h-775l20 94q48 0 85 4.5t58 11.5q38 10 58 44.5t46 136.5l229 913l25 111q0 44 -45 59t-177 15z
M783 2093q53 0 101 -26t75.5 -71.5t27.5 -98.5q0 -52 -27.5 -95t-75.5 -68.5t-101 -25.5q-89 0 -149 54t-60 135q0 51 27 97t76 72.5t106 26.5z" />
    <glyph glyph-name="c274" horiz-adv-x="1254" 
d="M406 586q0 56 26.5 100t72 70.5t97.5 26.5q53 0 100 -26t74 -71.5t27 -99.5q0 -53 -27 -98t-74 -72t-100 -27q-52 0 -96.5 27t-73.5 72q-26 46 -26 98z" />
    <glyph glyph-name="c275" horiz-adv-x="1000" 
d="M582 1004q153 0 258.5 -70.5t105.5 -171.5q0 -58 -37.5 -100.5t-89.5 -42.5q-48 0 -83 37t-35 90q0 35 20.5 63t48.5 31q20 0 21 8q0 14 -64.5 42t-136.5 28q-55 0 -102.5 -16.5t-73 -45t-25.5 -61.5q0 -65 47.5 -92t180.5 -80q128 -49 194 -110t66 -173q0 -102 -54 -186
t-152.5 -133.5t-215.5 -49.5q-112 0 -206 40.5t-151 109.5t-57 145q0 64 35 102t96 38q56 0 91.5 -35.5t35.5 -91.5q0 -41 -19 -63t-44.5 -34.5t-26.5 -17.5q0 -16 57 -45q62 -37 144 -37q106 0 174 47.5t68 120.5q0 32 -13.5 51t-58.5 41q-19 9 -57 24l-84 32
q-143 50 -209 119.5t-66 170.5q0 103 62.5 175t159 106.5t196.5 34.5zM504 -21l-74 -131q77 0 116.5 -32.5t39.5 -90.5q0 -81 -70.5 -136.5t-171.5 -55.5q-102 0 -200 24l20 82q25 -4 51.5 -6t63.5 -2q151 0 151 66q0 32 -29.5 46t-117.5 23l127 213h94z" />
    <glyph glyph-name="c276" horiz-adv-x="1692" 
d="M1385 0h-86l-41 176q-103 -97 -228.5 -151t-263.5 -54q-185 0 -345 93.5t-253.5 253t-93.5 346.5q0 226 125.5 419.5t339.5 309t457 115.5q145 0 253 -37t222 -127l90 135h82l-74 -578h-98q-15 141 -45 221t-95 146.5t-152.5 103.5t-182.5 37q-105 0 -190.5 -43
t-155.5 -132t-134 -230q-106 -248 -106 -451q0 -145 45 -249t132 -157t208 -53q135 0 229 64t123 174l20 69l15 62q6 30 6 62t-17.5 49.5t-39.5 22t-35 6.5t-30 2l-62 1l20 91h684l-24 -91q-67 0 -99 -10t-49.5 -39.5t-32.5 -89.5zM1467 1975q-39 -131 -130 -213t-223 -82
q-109 0 -171 55.5t-62 153.5q0 38 16 86h90l-4 -41q0 -95 156 -95q172 0 233 136h95z" />
  </font>
</defs>
</svg>
